<?xml version="1.0" standalone="no"?>
<!DOCTYPE svg PUBLIC "-//W3C//DTD SVG 1.1//EN" "http://www.w3.org/Graphics/SVG/1.1/DTD/svg11.dtd">
<svg xmlns="http://www.w3.org/2000/svg">
<defs >
<font id="Quicksand" horiz-adv-x="541" ><font-face
    font-family="Quicksand Light"
    units-per-em="1000"
    panose-1="0 0 0 0 0 0 0 0 0 0"
    ascent="1000"
    descent="-250"
    alphabetic="0" />
<glyph unicode=" " horiz-adv-x="280" />
<glyph unicode="!" horiz-adv-x="267" d="M134 221Q100 221 97 259L68 627Q66 658 84 679T133 700Q163 700 182 679T198 627L170 259Q167 221 134 221ZM127 0Q98 0 83 15T67 60V77Q67 106 82 121T127 137H140Q169 137 184 122T200 77V60Q200 31 185 16T140 0H127Z" />
<glyph unicode="&quot;" horiz-adv-x="430" d="M50 652Q55 700 102 700H131Q159 700 170 685T173 643L105 434Q93 401 63 401Q31 401 34 442L50 652ZM270 652Q275 700 322 700H351Q379 700 390 685T392 643L324 434Q312 401 282 401Q250 401 253 443L270 652Z" />
<glyph unicode="#" horiz-adv-x="693" d="M161 0Q135 0 121 19T110 67L211 657Q214 677 228 688T261 700Q288 700 303 681T313 633L212 43Q209 24 195 12T161 0ZM127 439Q104 439 89 454T73 493Q73 515 88 529T127 543H603Q626 543 641 528T657 489Q657 467 642
453T603 439H127ZM432 0Q405 0 390 19T380 67L481 657Q484 677 498 688T532 700Q558 700 573 681T583 633L482 43Q479 24 466 12T432 0ZM90 161Q67 161 52 176T36 215Q36 237 51 251T90 265H567Q590 265 605 250T621 211Q621 189 606 175T567 161H90Z" />
<glyph unicode="$" horiz-adv-x="597" d="M300 -10Q230 -10 174 7T67 69Q54 80 47 94T40 122Q40 145 56 162T98 180Q117 180 132 168Q170 137 207 121T300 105Q337 105 368 116T418 147T437 192Q437 222 419 243T364 278T270 301Q216 309 175 325T107 367T65 427T51
505Q51 570 84 616T175 686T301 710Q366 710 421 691T512 641Q541 618 541 588Q541 566 524 548T484 530Q469 530 457 539Q441 553 414 565T357 586T301 595Q258 595 229 584T184 554T169 510Q169 480 186 461T237 430T316 409Q376 398 421 383T497 345T542 286T557
199Q557 134 521 87T427 15T300 -10ZM372 -64Q372 -90 355 -107T311 -125Q286 -125 269 -108T252 -64V740Q252 766 269 783T313 801Q339 801 355 784T372 740V-64Z" />
<glyph unicode="%" horiz-adv-x="816" d="M194 320Q146 320 109 346T51 416T30 514Q30 569 51 613T109 683T194 709Q243 709 279 683T336 613T357 514Q357 460 335 416T277 346T194 320ZM194 409Q224 409 240 439T257 514Q257 559 241 589T194 619Q164 619 147
589T130 514Q130 469 146 439T194 409ZM623 -10Q577 -10 540 16T481 86T459 184Q459 239 480 283T538 353T623 379Q672 379 708 353T765 283T786 184Q786 130 764 86T706 16T623 -10ZM623 79Q653 79 669 109T686 184Q686 229 670 259T623 289Q593 289 576 259T559
184Q559 139 575 109T623 79ZM206 -2Q190 -2 172 11T154 47Q154 60 164 77L562 678Q580 702 603 702Q620 702 637 689T655 653Q655 640 645 623L247 22Q229 -2 206 -2Z" />
<glyph unicode="&amp;" horiz-adv-x="709" d="M279 -10Q208 -10 152 21T63 102T30 209Q30 259 47 300T100 374T191 428L269 347Q199 332 176 302T152 227Q152 197 167 169T216 122T307 103Q354 103 391 124T456 181T501 260T525 349Q527 365 537 374T573 383Q599
383 614 362T625 313Q616 253 591 196T523 92T420 18T279 -10ZM635 -2Q623 -2 615 1T601 8Q529 70 470 122T360 223T266 321Q231 361 202 393T156 455T138 523Q138 572 164 614T240 683T356 710Q425 710 480 687T555 626Q556 625 560 614T564 587Q564 568 550 554T512
540Q496 540 487 546T473 558Q451 587 423 598T356 610Q311 610 288 586T264 529Q264 498 286 468T336 410T384 362Q415 329 453 292T531 219T603 153T658 102Q671 90 677 78T684 49Q684 36 673 17T635 -2Z" />
<glyph unicode="&apos;" horiz-adv-x="212" d="M50 652Q55 700 102 700H133Q161 700 172 685T174 643L106 434Q94 401 63 401Q31 401 34 442L50 652Z" />
<glyph unicode="(" horiz-adv-x="357" d="M292 -182Q277 -182 265 -174Q189 -123 137 -56T57 92T30 259Q30 346 57 426T136 573T265 692Q277 700 292 700Q316 700 329 682T342 648Q342 625 321 608Q264 563 226 508T170 389T151 259Q151 192 168 128T224 9T321
-90Q342 -105 342 -130Q342 -148 328 -165T292 -182Z" />
<glyph unicode=")" horiz-adv-x="357" d="M65 -182Q41 -182 28 -164T15 -130Q15 -106 36 -90Q94 -45 131 10T187 129T206 259Q206 326 189 390T134 510T36 608Q15 623 15 648Q15 666 29 683T65 700Q80 700 92 692Q169 641 221 574T300 426T327 259Q327 172 300
92T221 -55T92 -174Q80 -182 65 -182Z" />
<glyph unicode="*" horiz-adv-x="363" d="M181 382Q167 382 159 392T151 417L160 496Q161 499 159 500T154 499L89 452Q77 443 64 445T43 461Q34 477 39 489T58 506L131 539Q134 540 134 542T131 545L58 578Q44 584 40 597T43 623Q51 636 64 638T89 633L154 585Q157
583 159 584T160 588L151 667Q150 682 159 692T183 702Q197 702 206 692T213 667L204 588Q203 585 205 584T210 585L275 632Q287 641 300 639T321 623Q330 607 325 595T306 578L233 545Q230 544 230 542T233 539L306 506Q320 500 324 487T321 461Q314 448 301 446T275
451L210 499Q207 501 205 500T204 496L213 417Q215 402 206 392T181 382Z" />
<glyph unicode="+" horiz-adv-x="578" d="M96 276Q72 276 56 292T40 332Q40 356 56 371T96 386H503Q527 386 543 371T559 331Q559 307 543 292T503 276H96ZM298 81Q270 81 252 99T233 145V535Q233 563 252 581T299 599Q328 599 345 581T363 535V145Q363 117 345
99T298 81Z" />
<glyph unicode="," horiz-adv-x="275" d="M217 8Q217 -25 199 -58T151 -114T88 -137Q77 -137 65 -128T52 -97Q52 -74 66 -70T91 -60Q104 -53 111 -44T119 -20Q119 -9 109 -1T81 8Q75 8 67 7T53 1Q43 6 36 13T28 38Q28 69 56 91T123 114Q166 114 191 85T217 8Z" />
<glyph unicode="-" horiz-adv-x="396" d="M111 247Q85 247 68 264T50 307Q50 333 67 349T111 366H285Q311 366 328 349T346 305Q346 280 329 264T285 247H111Z" />
<glyph unicode="." horiz-adv-x="249" d="M118 1Q89 1 74 16T58 61V78Q58 107 73 122T118 138H131Q160 138 175 123T191 78V61Q191 32 176 17T131 1H118Z" />
<glyph unicode="/" horiz-adv-x="568" d="M84 -134Q67 -134 49 -120T31 -84Q31 -72 37 -60L443 771Q450 785 462 793T487 801Q504 801 521 788T539 751Q539 739 533 727L128 -104Q121 -118 110 -126T84 -134Z" />
<glyph unicode="0" horiz-adv-x="614" d="M307 -10Q221 -10 162 35T71 162T40 350Q40 457 71 538T161 664T307 710Q393 710 452 665T543 538T574 350Q574 244 543 163T453 36T307 -10ZM307 110Q349 110 379 136T427 216T444 350Q444 431 427 484T380 563T307 590Q266
590 235 564T187 484T170 350Q170 270 187 217T235 137T307 110Z" />
<glyph unicode="1" horiz-adv-x="389" d="M238 0Q210 0 192 17T174 61V565L188 543L115 489Q101 478 80 478Q56 478 38 496T20 539Q20 571 51 591L195 687Q205 694 217 697T241 700Q270 700 287 683T304 639V61Q304 35 286 18T238 0Z" />
<glyph unicode="2" horiz-adv-x="569" d="M458 110Q482 110 498 94T514 54Q514 31 498 16T458 0H118Q92 0 77 16T62 57Q62 82 80 101L298 334Q335 374 356 416T378 489Q378 539 349 569T272 600Q253 600 233 591T195 566T160 529Q148 513 136 509T114 505Q92 505
74 521T55 560Q55 577 66 593T95 626Q120 651 151 670T215 699T279 710Q346 710 395 684T472 609T499 494Q499 439 467 372T379 245L244 101L233 110H458Z" />
<glyph unicode="3" horiz-adv-x="537" d="M112 141Q121 141 131 138T155 126Q172 113 195 103T250 93Q281 93 308 108T354 152T372 221Q372 259 357 284T316 322T261 335Q239 335 225 331T197 323T165 318Q142 318 130 334T117 372Q117 386 122 397T139 421L315
608L342 585H96Q72 585 56 601T40 641Q40 664 56 679T96 695H402Q433 695 448 678T464 635Q464 622 457 610T440 587L263 397L236 431Q247 436 266 440T299 444Q358 444 401 414T468 335T492 230Q492 156 459 102T366 19T226 -10Q189 -10 153 -1T91 23Q69 35 62
49T54 77Q54 100 70 120T112 141Z" />
<glyph unicode="4" horiz-adv-x="588" d="M389 0Q364 0 347 17T330 61V531L351 526L158 287L153 300H507Q531 300 547 284T563 244Q563 221 547 206T507 190H70Q49 190 30 207T10 249Q10 271 25 289L341 676Q349 687 362 693T391 700Q417 700 433 683T450 639V61Q450
35 433 18T389 0Z" />
<glyph unicode="5" horiz-adv-x="576" d="M241 -10Q204 -10 162 1T93 35Q80 46 73 63T65 97Q65 114 79 129T121 144Q139 144 166 125Q182 115 201 107T240 99Q288 99 323 116T377 165T396 238Q396 276 379 303T333 345T271 360Q240 360 217 350T175 330T137 319Q104
319 88 333T68 368T66 404L97 647Q101 668 117 681T157 695H446Q470 695 486 679T502 639Q502 616 486 601T446 585H188L199 594L172 391L159 429Q165 439 185 448T231 463T282 470Q349 470 402 440T485 357T516 238Q516 163 482 107T387 21T241 -10Z" />
<glyph unicode="6" horiz-adv-x="553" d="M285 -10Q231 -10 188 12T114 74T67 162T50 263Q50 297 57 345T84 446T137 549T223 639T352 700Q364 703 375 703Q398 703 416 691T435 647Q435 625 421 609T382 585Q348 575 315 556T253 508T204 445T174 368L147 369Q161
386 181 405T231 439T301 454Q340 454 378 436T448 387T499 313T518 222Q518 158 487 105T403 21T285 -10ZM285 100Q317 100 342 116T383 160T398 222Q398 257 383 284T343 328T285 344Q253 344 228 328T187 285T172 222Q172 188 187 160T227 116T285 100Z" />
<glyph unicode="7" horiz-adv-x="549" d="M200 -5Q175 -5 157 11T138 53Q138 67 144 80L389 611L400 584H111Q87 584 71 600T55 640Q55 663 71 678T111 694H459Q485 694 504 678T524 635Q524 622 518 608L255 33Q248 15 233 5T200 -5Z" />
<glyph unicode="8" horiz-adv-x="548" d="M386 355L384 378Q422 361 450 334T493 275T508 209Q508 152 477 105T392 29T274 0Q209 0 156 28T72 104T40 209Q40 255 59 288T108 345T167 383L159 355Q134 365 111 383T72 431T57 499Q57 555 86 600T164 673T274 700Q335
700 383 673T461 601T490 499Q490 456 473 427T432 381T386 355ZM177 497Q177 470 189 449T224 416T274 403Q302 403 323 415T357 449T370 497Q370 537 343 563T274 590Q232 590 205 564T177 497ZM274 110Q322 110 355 139T388 211Q388 240 373 263T332 299T274
313Q242 313 216 300T175 263T160 211Q160 169 193 140T274 110Z" />
<glyph unicode="9" horiz-adv-x="568" d="M283 713Q337 713 380 691T454 629T501 542T518 440Q518 406 511 357T484 254T431 148T345 55T216 -7Q204 -10 193 -10Q170 -10 152 2T133 46Q133 69 147 85T186 108Q232 122 275 154T351 233T394 335L421 334Q408 318
388 298T338 264T267 249Q201 249 153 277T77 358T50 481Q50 544 81 597T166 681T283 713ZM283 603Q251 603 226 587T185 543T170 481Q170 444 184 417T223 374T283 359Q315 359 340 375T381 419T396 481Q396 516 381 543T341 587T283 603Z" />
<glyph unicode=":" horiz-adv-x="273" d="M130 391Q101 391 86 406T70 451V468Q70 497 85 512T130 528H143Q172 528 187 513T203 468V451Q203 422 188 407T143 391H130ZM130 0Q101 0 86 15T70 60V77Q70 106 85 121T130 137H143Q172 137 187 122T203 77V60Q203
31 188 16T143 0H130Z" />
<glyph unicode=";" horiz-adv-x="294" d="M156 391Q127 391 112 406T96 451V468Q96 497 111 512T156 528H169Q198 528 213 513T229 468V451Q229 422 214 407T169 391H156ZM249 8Q249 -25 231 -58T183 -114T120 -137Q109 -137 97 -128T84 -97Q84 -74 98 -70T123
-60Q136 -53 143 -44T151 -20Q151 -9 141 -1T113 8Q107 8 99 7T85 1Q75 6 68 13T60 38Q60 69 88 91T155 114Q198 114 223 85T249 8Z" />
<glyph unicode="&lt;" horiz-adv-x="525" d="M424 72Q413 72 401 78T374 93L49 284Q37 292 31 304T25 330Q25 344 31 356T49 376L374 563Q387 571 398 575T420 580Q440 580 457 561T475 520Q475 510 470 501T453 484L106 283L99 383L452 172Q464 165 469 155T474
133Q474 109 458 91T424 72Z" />
<glyph unicode="=" horiz-adv-x="619" d="M109 372Q84 372 67 388T50 428Q50 451 67 466T109 482H510Q536 482 552 467T569 428Q569 405 553 389T510 372H109ZM109 178Q84 178 67 194T50 234Q50 257 67 272T109 288H510Q536 288 552 273T569 234Q569 211 553 195T510
178H109Z" />
<glyph unicode="&gt;" horiz-adv-x="525" d="M105 84Q85 84 68 103T50 144Q50 155 55 164T72 180L419 381L426 281L73 492Q61 499 56 509T51 531Q51 555 68 573T101 592Q112 592 124 586T151 571L476 380Q488 373 494 361T500 334Q500 320 494 308T476 288L151
101Q138 94 127 89T105 84Z" />
<glyph unicode="?" horiz-adv-x="527" d="M156 316Q156 342 173 359T216 377Q257 377 290 389T342 430T362 504Q362 538 346 564T301 605T236 620Q208 620 184 610T139 583Q123 569 101 563T55 573Q31 591 29 616T48 662Q84 699 132 719T236 740Q305 740 360 709T449
624T482 504Q482 454 467 416T425 350T361 306T281 282Q279 281 278 280T276 277V240Q276 214 259 197T216 179Q190 179 173 196T156 240V316ZM211 0Q182 0 167 15T151 60V77Q151 106 166 121T211 137H224Q253 137 268 122T284 77V60Q284 31 269 16T224 0H211Z"
/>
<glyph unicode="@" horiz-adv-x="964" d="M657 55Q624 55 595 70T551 114T542 177L550 222L564 190Q549 136 522 107T461 66T395 55Q358 55 324 75T268 132T246 220Q246 267 264 317T315 412T391 483T485 510Q528 510 561 480T598 396L571 331L592 467Q594 481
607 494T647 507Q682 507 693 492T700 448L660 196Q655 162 668 147T700 132Q730 132 756 155T802 216T833 301T845 396Q845 466 812 519T719 602T576 632Q480 632 398 604T253 520T155 386T120 206Q120 152 136 101T188 7T279 -59T414 -84Q469 -84 508 -77T578
-56T639 -25Q656 -15 669 -21T688 -44Q700 -74 653 -98Q610 -120 554 -141T414 -162Q313 -162 242 -131T127 -46T61 72T40 206Q40 323 81 416T196 575T367 675T576 710Q690 710 768 668T885 554T925 396Q925 335 907 275T854 165T770 85T657 55ZM426 145Q452 145
473 157T511 188T538 227T553 263Q574 325 569 359T541 406T490 420Q460 420 436 401T394 352T367 288T358 222Q358 184 376 165T426 145Z" />
<glyph unicode="A" horiz-adv-x="639" d="M332 543L116 35Q109 16 95 6T63 -5Q36 -5 23 10T10 47Q10 56 13 66L262 664Q270 684 286 695T322 704Q340 704 355 694T378 664L624 78Q629 65 629 54Q629 27 612 11T573 -5Q555 -5 541 6T518 36L303 537L332 543ZM147
157L202 272H472L491 157H147Z" />
<glyph unicode="B" horiz-adv-x="655" d="M388 700Q484 700 531 655T578 522Q578 475 555 440T487 385T376 365L380 410Q411 410 451 402T528 372T590 312T615 213Q615 147 594 105T537 40T462 9T385 0H136Q110 0 93 17T75 61V639Q75 665 92 682T136 700H388ZM370
582H192L205 598V417L193 426H373Q402 426 425 445T448 500Q448 543 427 562T370 582ZM378 308H196L205 316V105L195 115H385Q431 115 458 139T485 213Q485 258 467 278T424 303T378 308Z" />
<glyph unicode="C" horiz-adv-x="627" d="M565 666Q591 653 595 625T581 574Q568 556 548 554T506 562Q482 573 456 579T400 585Q346 585 304 568T231 520T186 445T170 350Q170 289 187 244T236 169T309 125T400 110Q427 110 454 115T506 133Q527 143 547 140T582
119Q602 94 597 68T566 29Q540 16 513 8T457 -5T400 -10Q328 -10 264 13T149 81T69 193T40 350Q40 427 66 492T141 604T256 678T400 705Q444 705 486 695T565 666Z" />
<glyph unicode="D" horiz-adv-x="715" d="M375 700Q447 700 503 673T597 598T655 486T675 350Q675 253 640 174T539 47T375 0H136Q110 0 93 17T75 61V639Q75 665 92 682T136 700H375ZM365 115Q428 115 468 147T526 233T545 350Q545 397 535 439T502 514T446 566T365
585H190L200 594V104L194 115H365Z" />
<glyph unicode="E" horiz-adv-x="572" d="M136 700H471Q497 700 514 684T532 641Q532 616 515 601T471 585H191L200 602V407L192 415H426Q452 415 469 399T487 356Q487 331 470 316T426 300H195L200 308V106L192 115H471Q497 115 514 98T532 57Q532 32 515 16T471
0H136Q110 0 93 17T75 61V639Q75 665 92 682T136 700Z" />
<glyph unicode="F" horiz-adv-x="562" d="M138 0Q110 0 93 17T75 61V639Q75 665 92 682T136 700H461Q487 700 504 684T522 641Q522 619 505 602T461 585H191L200 597V396L193 409H416Q442 409 459 393T477 350Q477 328 460 311T416 294H191L200 303V61Q200 35
182 18T138 0Z" />
<glyph unicode="G" horiz-adv-x="696" d="M405 -10Q329 -10 263 18T147 95T69 210T40 350Q40 425 68 490T147 604T263 682T405 710Q452 710 496 700T577 670Q592 662 599 649T607 621Q607 597 591 578T550 559Q542 559 534 561T517 567Q492 578 464 584T405 590Q340
590 287 558T202 471T170 350Q170 285 201 230T286 143T405 110Q435 110 471 116T530 132L521 102V273L538 258H427Q401 258 384 275T366 318Q366 344 383 361T427 378H591Q617 378 634 361T651 317V105Q651 85 642 72T620 51Q574 23 520 7T405 -10Z" />
<glyph unicode="H" horiz-adv-x="719" d="M139 700Q163 700 181 683T200 639V61Q200 35 181 18T137 0Q109 0 92 17T75 61V639Q75 665 93 682T139 700ZM582 700Q610 700 627 683T644 639V61Q644 35 627 18T580 0Q556 0 538 17T519 61V639Q519 665 538 682T582 700ZM136
409H582V294H136V409Z" />
<glyph unicode="I" horiz-adv-x="275" d="M200 61Q200 35 181 18T137 0Q109 0 92 17T75 61V639Q75 665 93 682T139 700Q163 700 181 683T200 639V61Z" />
<glyph unicode="J" horiz-adv-x="552" d="M238 -10Q181 -10 132 13T52 79Q40 97 40 114Q40 139 59 156T98 173Q113 173 127 164T154 143Q174 125 193 118T238 110Q268 110 294 125T336 165T352 219V639Q352 665 371 682T415 700Q443 700 460 683T477 639V219Q477
158 445 106T359 22T238 -10Z" />
<glyph unicode="K" horiz-adv-x="655" d="M557 0Q529 0 512 23L281 327L372 420L611 104Q625 85 625 63Q625 35 604 18T557 0ZM569 705Q593 705 608 686T624 646Q624 625 606 607L187 206L182 349L520 682Q543 705 569 705ZM137 0Q109 0 92 17T75 61V639Q75 665
93 682T139 700Q167 700 183 683T200 639V61Q200 35 183 18T137 0Z" />
<glyph unicode="L" horiz-adv-x="562" d="M461 117Q487 117 504 101T522 58Q522 33 505 17T461 0H136Q110 0 93 17T75 61V639Q75 665 93 682T139 700Q163 700 181 683T200 639V100L178 117H461Z" />
<glyph unicode="M" horiz-adv-x="819" d="M138 701Q152 701 167 694T191 674L434 300L384 302L633 674Q652 701 682 701Q706 701 725 684T744 640V61Q744 35 727 18T682 0Q654 0 637 17T619 61V532L658 523L454 212Q445 201 432 193T404 186Q391 185 378 193T355
212L164 514L190 567V61Q190 35 174 18T132 0Q107 0 91 17T75 61V640Q75 665 93 683T138 701Z" />
<glyph unicode="N" horiz-adv-x="735" d="M606 700Q630 700 645 684T660 644V61Q660 35 643 18T599 0Q586 0 573 4T552 17L159 516L185 532V56Q185 32 170 16T129 0Q105 0 90 16T75 56V639Q75 665 92 682T136 700Q150 700 165 695T187 678L568 192L551 180V644Q551
668 566 684T606 700Z" />
<glyph unicode="O" horiz-adv-x="759" d="M719 350Q719 275 694 210T624 96T516 18T379 -10Q305 -10 243 18T136 95T65 210T40 350Q40 425 65 490T135 604T243 682T379 710Q453 710 515 682T623 605T694 490T719 350ZM589 350Q589 417 562 471T488 558T379 590Q317
590 270 558T197 472T170 350Q170 283 196 229T270 142T379 110Q441 110 488 142T562 228T589 350Z" />
<glyph unicode="P" horiz-adv-x="603" d="M364 700Q416 700 461 670T535 589T563 475Q563 413 535 362T462 281T364 250H180L190 268V61Q190 35 174 18T132 0Q107 0 91 17T75 61V639Q75 665 92 682T136 700H364ZM364 364Q383 364 401 380T431 421T443 475Q443
504 431 529T401 569T364 585H178L190 603V348L179 364H364Z" />
<glyph unicode="Q" horiz-adv-x="755" d="M723 -28Q744 -28 762 -45T780 -86Q780 -109 760 -129T707 -166T641 -191T578 -200Q516 -200 479 -189T418 -163T373 -137T322 -125Q303 -125 292 -131T267 -144T229 -151Q204 -151 187 -132T170 -91Q170 -52 205 -39L412
38L502 16L308 -56L365 -23Q400 -23 426 -33T477 -57T526 -80T585 -91Q612 -91 630 -82T663 -62Q680 -49 693 -39T723 -28ZM719 350Q719 275 694 210T624 96T516 18T379 -10Q305 -10 243 18T136 95T65 210T40 350Q40 425 65 490T135 604T243 682T379 710Q453 710
515 682T623 605T694 490T719 350ZM589 350Q589 417 562 471T488 558T379 590Q317 590 270 558T197 472T170 350Q170 283 196 229T270 142T379 110Q441 110 488 142T562 228T589 350Z" />
<glyph unicode="R" horiz-adv-x="687" d="M147 0Q119 0 97 17T75 61V639Q75 665 92 682T136 700H424Q476 700 521 673T595 597T623 485Q623 447 608 411T566 346T506 301L507 324Q535 309 553 289T582 245T595 194Q599 169 600 150T606 118T624 98Q646 85 651
61T640 17Q629 4 612 1T578 0T550 10Q533 20 516 39T489 92T478 177Q478 194 472 208T455 233T427 249T387 255H185L200 278V61Q200 35 186 18T147 0ZM186 358H419Q437 358 454 374T482 419T493 482Q493 526 470 555T419 585H188L200 617V334L186 358Z" />
<glyph unicode="S" horiz-adv-x="597" d="M300 -10Q230 -10 174 7T67 69Q54 80 47 94T40 122Q40 145 56 162T98 180Q117 180 132 168Q170 137 207 121T300 105Q337 105 368 116T418 147T437 192Q437 222 419 243T364 278T270 301Q216 309 175 325T107 367T65 427T51
505Q51 570 84 616T175 686T301 710Q366 710 421 691T512 641Q541 618 541 588Q541 566 524 548T484 530Q469 530 457 539Q441 553 414 565T357 586T301 595Q258 595 229 584T184 554T169 510Q169 480 186 461T237 430T316 409Q376 398 421 383T497 345T542 286T557
199Q557 134 521 87T427 15T300 -10Z" />
<glyph unicode="T" horiz-adv-x="626" d="M312 0Q284 0 266 17T248 61V641H378V61Q378 35 360 18T312 0ZM91 585Q65 585 48 601T30 643Q30 669 47 684T91 700H535Q561 700 578 684T596 642Q596 616 579 601T535 585H91Z" />
<glyph unicode="U" horiz-adv-x="705" d="M572 701Q598 701 614 684T630 640V278Q630 195 595 131T497 31T353 -5Q271 -5 209 31T111 131T75 278V640Q75 666 93 683T139 701Q162 701 180 684T199 640V278Q199 228 220 192T277 135T353 115Q396 115 433 135T493
191T516 278V640Q516 666 531 683T572 701Z" />
<glyph unicode="V" horiz-adv-x="678" d="M586 702Q611 702 629 686T648 644Q648 631 642 617L395 39Q386 19 370 10T336 0Q320 1 305 10T282 38L35 618Q32 624 31 630T30 643Q30 672 51 687T91 703Q129 703 146 664L365 149L330 148L531 664Q548 702 586 702Z" />
<glyph unicode="W" horiz-adv-x="943" d="M862 703Q885 703 906 686T927 638Q927 629 924 618L727 38Q721 20 706 11T673 0Q656 0 640 10T614 39L466 375L475 369L329 39Q320 20 304 10T270 0Q254 1 238 10T216 38L19 618Q16 629 16 638Q16 668 37 685T82 703Q101
703 117 693T140 664L299 182L277 183L419 524Q427 542 442 552T476 562Q495 563 510 553T532 524L662 198L646 188L803 664Q809 683 826 693T862 703Z" />
<glyph unicode="X" horiz-adv-x="655" d="M554 701Q577 701 593 683T610 645Q610 626 597 609L396 344L328 437L505 672Q526 701 554 701ZM108 703Q137 703 157 677L597 92Q609 76 609 55Q609 27 589 11T549 -5Q520 -5 500 21L60 606Q47 622 47 642Q47 668 66
685T108 703ZM99 -5Q77 -5 61 11T45 48Q45 70 60 89L263 364L329 267L149 23Q129 -5 99 -5Z" />
<glyph unicode="Y" horiz-adv-x="596" d="M521 703Q544 703 562 686T581 641Q581 632 579 623T570 604L343 279L361 348V61Q361 35 344 18T303 0Q278 0 261 17T243 61V340L251 308L35 595Q25 608 21 620T17 642Q17 669 38 686T81 703Q109 703 130 675L322 410L294
414L471 673Q492 703 521 703Z" />
<glyph unicode="Z" horiz-adv-x="648" d="M548 700Q570 700 591 684T613 641Q613 622 599 603L216 111L204 115H538Q564 115 581 100T599 58Q599 33 582 17T538 0H99Q73 0 54 18T35 59Q35 78 49 97L433 591L442 585H139Q113 585 96 601T78 643Q78 669 95 684T139
700H548Z" />
<glyph unicode="[" horiz-adv-x="407" d="M128 -190Q107 -190 94 -177T80 -142V652Q80 673 93 686T128 700H339Q360 700 373 687T387 652Q387 632 374 619T339 605H190L195 613V-107L183 -95H339Q360 -95 373 -108T387 -143Q387 -163 374 -176T339 -190H128Z" />
<glyph unicode="\" horiz-adv-x="568" d="M484 -134Q471 -134 459 -126T440 -104L35 727Q32 733 31 739T29 751Q29 774 46 787T81 801Q95 801 106 793T125 771L531 -60Q537 -72 537 -84Q537 -108 518 -121T484 -134Z" />
<glyph unicode="]" horiz-adv-x="407" d="M279 700Q300 700 313 687T327 652V-142Q327 -163 314 -176T279 -190H68Q47 -190 34 -177T20 -142Q20 -122 33 -109T68 -95H217L212 -103V617L224 605H68Q47 605 34 618T20 653Q20 673 33 686T68 700H279Z" />
<glyph unicode="^" horiz-adv-x="618" d="M113 319Q88 319 69 337T50 382Q50 394 56 405T70 428L227 685Q239 705 260 709T308 714Q340 714 360 709T391 685L549 427Q556 416 562 405T569 382Q569 357 550 338T505 319Q493 319 480 323T460 338L299 599L323 603L158
338Q151 327 138 323T113 319Z" />
<glyph unicode="_" horiz-adv-x="704" d="M98 -160Q77 -160 64 -147T50 -113Q50 -93 63 -80T98 -66H606Q627 -66 640 -79T654 -114Q654 -134 641 -147T606 -160H98Z" />
<glyph unicode="`" horiz-adv-x="259" d="M173 570Q168 570 162 571T150 576L50 629Q32 639 23 653T13 682Q13 705 31 718T66 731Q80 731 92 725T115 709L201 633Q215 620 215 606Q215 590 204 580T173 570Z" />
<glyph unicode="a" horiz-adv-x="628" d="M503 545Q529 545 546 528T563 484V61Q563 35 546 18T503 0Q477 0 460 17T443 61V110L465 101Q465 88 451 70T413 33T357 3T286 -10Q217 -10 161 25T73 123T40 267Q40 349 72 411T160 509T282 545Q325 545 361 532T423
499T464 459T479 424L443 411V484Q443 510 460 527T503 545ZM301 100Q345 100 378 122T429 182T448 267Q448 315 430 353T378 413T301 435Q258 435 225 413T174 353T155 267Q155 220 173 182T225 122T301 100Z" />
<glyph unicode="b" horiz-adv-x="628" d="M342 545Q412 545 467 510T555 412T588 268Q588 186 556 124T469 26T346 -10Q306 -10 271 3T210 36T169 76T154 111L185 124V51Q185 25 168 8T125 -10Q99 -10 82 7T65 51V679Q65 705 82 722T125 740Q151 740 168 723T185
679V425L168 434Q168 447 182 465T220 502T275 533T342 545ZM327 435Q283 435 250 413T199 354T180 268Q180 221 198 183T250 122T327 100Q371 100 403 122T454 182T473 268Q473 316 455 353T404 413T327 435Z" />
<glyph unicode="c" horiz-adv-x="520" d="M303 545Q360 545 402 533T468 500T492 448Q492 428 480 411T445 393Q429 393 419 397T400 409T381 422Q371 428 351 431T320 435Q269 435 234 413T179 354T160 267Q160 219 179 182T233 122T313 100Q338 100 356 103T386
112Q400 120 411 129T444 138Q470 138 484 122T498 81Q498 56 470 36T397 3T298 -10Q219 -10 161 26T72 126T40 267Q40 349 73 411T166 509T303 545Z" />
<glyph unicode="d" horiz-adv-x="628" d="M503 740Q529 740 546 723T563 679V61Q563 35 546 18T503 0Q477 0 460 17T443 61V110L465 101Q465 88 451 70T413 33T357 3T286 -10Q217 -10 161 25T73 123T40 267Q40 349 72 411T160 509T282 545Q325 545 361 532T423
499T464 459T479 424L443 411V679Q443 705 460 722T503 740ZM301 100Q345 100 378 122T429 182T448 267Q448 315 430 353T378 413T301 435Q258 435 225 413T174 353T155 267Q155 220 173 182T225 122T301 100Z" />
<glyph unicode="e" horiz-adv-x="590" d="M317 -10Q232 -10 170 25T74 122T40 260Q40 350 76 413T172 511T297 545Q348 545 393 524T474 467T529 382T550 280Q549 256 531 241T489 226H107L77 326H444L422 306V333Q420 362 402 385T356 421T297 435Q267 435 241
427T196 400T166 349T155 268Q155 214 177 177T235 120T311 100Q348 100 370 106T405 120T430 135Q448 144 464 144Q486 144 500 129T515 94Q515 67 487 45Q461 23 414 7T317 -10Z" />
<glyph unicode="f" horiz-adv-x="437" d="M340 740Q362 740 383 734T418 715T432 679Q432 654 418 640T384 625Q375 625 357 629T322 634Q297 634 284 623T265 598T260 572V61Q260 35 243 18T200 0Q174 0 157 17T140 61V571Q140 642 190 691T340 740ZM351 525Q375
525 391 510T407 470Q407 446 391 431T351 415H86Q62 415 46 430T30 470Q30 494 46 509T86 525H351Z" />
<glyph unicode="g" horiz-adv-x="638" d="M287 545Q329 545 364 532T424 499T464 459T479 424L453 411V484Q453 510 470 527T513 545Q539 545 556 528T573 484V39Q573 -48 536 -100T437 -176T306 -200Q286 -200 254 -195T193 -183T149 -170Q119 -157 108 -138T103
-96Q112 -67 132 -57T174 -54Q184 -57 207 -66T257 -82T306 -90Q381 -90 417 -60T453 23V110L465 101Q465 88 452 70T415 33T359 3T291 -10Q220 -10 163 25T73 123T40 267Q40 349 73 411T162 509T287 545ZM306 435Q261 435 227 413T174 353T155 267Q155 220 174
182T227 122T306 100Q352 100 386 122T439 182T458 267Q458 315 439 353T386 413T306 435Z" />
<glyph unicode="h" horiz-adv-x="586" d="M346 545Q418 545 455 514T507 432T521 317V61Q521 35 504 18T461 0Q435 0 418 17T401 61V317Q401 350 393 376T364 419T304 435Q266 435 239 419T199 377T185 317V61Q185 35 168 18T125 0Q99 0 82 17T65 61V679Q65 705
82 722T125 740Q151 740 168 723T185 679V431L170 434Q179 451 195 470T234 507T285 534T346 545Z" />
<glyph unicode="i" horiz-adv-x="236" d="M178 61Q178 35 161 18T118 0Q92 0 75 17T58 61V474Q58 500 75 517T118 535Q144 535 161 518T178 474V61ZM117 600Q83 600 69 611T55 650V669Q55 698 70 708T118 719Q153 719 167 708T181 669V650Q181 621 166 611T117 600Z" />
<glyph unicode="j" horiz-adv-x="275" d="M200 -10Q200 -67 178 -108T119 -173T36 -196Q11 -196 -4 -180T-20 -140V-129Q-20 -107 -6 -94T31 -74Q55 -66 65 -52T77 -17T80 25V474Q80 500 97 517T140 535Q166 535 183 518T200 474V-10ZM138 600Q104 600 90 611T76
650V669Q76 698 91 708T139 719Q174 719 188 708T202 669V650Q202 621 187 611T138 600Z" />
<glyph unicode="k" horiz-adv-x="569" d="M135 0Q109 0 92 17T75 61V679Q75 705 92 722T135 740Q161 740 178 723T195 679V61Q195 35 178 18T135 0ZM453 535Q476 535 493 516T510 479Q510 455 486 434L185 157L180 295L409 516Q428 535 453 535ZM468 1Q442 1 424
21L239 217L330 301L510 105Q529 85 529 60Q529 34 509 18T468 1Z" />
<glyph unicode="l" horiz-adv-x="270" d="M195 61Q195 35 178 18T134 0Q109 0 92 17T75 61V679Q75 705 92 722T136 740Q162 740 178 723T195 679V61Z" />
<glyph unicode="m" horiz-adv-x="922" d="M346 545Q426 545 464 507T514 407L497 416L505 432Q517 455 542 481T602 526T682 545Q754 545 791 514T843 432T857 317V61Q857 35 840 18T797 0Q771 0 754 17T737 61V317Q737 350 729 376T700 419T640 435Q602 435 575
419T535 377T521 317V61Q521 35 504 18T461 0Q435 0 418 17T401 61V317Q401 350 393 376T364 419T304 435Q266 435 239 419T199 377T185 317V61Q185 35 168 18T125 0Q99 0 82 17T65 61V474Q65 500 82 517T125 535Q151 535 168 518T185 474V431L170 434Q179 451
195 470T234 507T285 534T346 545Z" />
<glyph unicode="n" horiz-adv-x="596" d="M351 545Q425 545 463 514T516 432T531 317V61Q531 35 514 18T471 0Q445 0 428 17T411 61V317Q411 350 403 376T372 419T309 435Q269 435 242 419T200 377T185 317V61Q185 35 168 18T125 0Q99 0 82 17T65 61V474Q65 500
82 517T125 535Q151 535 168 518T185 474V431L170 434Q179 451 196 470T236 507T288 534T351 545Z" />
<glyph unicode="o" horiz-adv-x="624" d="M584 267Q584 185 548 123T450 25T312 -10Q236 -10 175 25T77 122T40 267Q40 349 76 411T174 509T312 545Q388 545 449 510T547 412T584 267ZM464 267Q464 318 444 355T389 414T312 435Q270 435 236 414T181 356T160 267Q160
217 180 180T235 121T312 100Q354 100 388 121T443 179T464 267Z" />
<glyph unicode="p" horiz-adv-x="628" d="M342 545Q412 545 467 510T555 412T588 268Q588 186 556 124T469 26T346 -10Q306 -10 271 3T210 36T169 76T154 111L185 124V-139Q185 -165 168 -182T125 -200Q99 -200 82 -183T65 -139V474Q65 500 82 517T125 535Q151
535 168 518T185 474V425L168 434Q168 447 182 465T220 502T275 533T342 545ZM327 435Q283 435 250 413T199 354T180 268Q180 221 198 183T250 122T327 100Q371 100 403 122T454 182T473 268Q473 316 455 353T404 413T327 435Z" />
<glyph unicode="q" horiz-adv-x="628" d="M503 535Q529 535 546 518T563 474V-139Q563 -165 546 -182T503 -200Q477 -200 460 -183T443 -139V110L465 101Q465 88 451 70T413 33T357 3T286 -10Q217 -10 161 25T73 123T40 267Q40 349 72 411T160 509T282 545Q325
545 361 532T423 499T464 459T479 424L443 411V474Q443 500 460 517T503 535ZM301 100Q345 100 378 122T429 182T448 267Q448 315 430 353T378 413T301 435Q258 435 225 413T174 353T155 267Q155 220 173 182T225 122T301 100Z" />
<glyph unicode="r" horiz-adv-x="434" d="M125 0Q99 0 82 17T65 61V474Q65 500 82 517T125 535Q151 535 168 518T185 474V380L178 447Q189 471 206 489T246 520T293 539T343 545Q373 545 393 528T414 488Q414 455 397 441T360 426Q341 426 326 433T290 440Q272
440 254 432T220 405T195 361T185 298V61Q185 35 168 18T125 0Z" />
<glyph unicode="s" horiz-adv-x="482" d="M34 83Q24 97 25 119T51 157Q67 167 85 166T120 147Q149 118 181 102T261 86Q276 87 294 90T325 106T339 145Q339 167 324 180T285 202T230 219Q199 228 167 239T107 267T63 314T46 387Q46 437 74 472T146 526T240 545Q271
545 305 538T370 514T422 470Q433 455 435 434T416 396Q401 384 381 385T348 399Q331 421 303 434T237 447Q222 447 205 444T174 429T161 392Q161 369 176 356T216 334T271 317Q301 309 332 298T389 269T431 223T447 150Q447 99 417 63T342 9T250 -10Q191 -10 132
10T34 83Z" />
<glyph unicode="t" horiz-adv-x="409" d="M71 525H308Q332 525 348 509T364 469Q364 446 348 431T308 415H71Q47 415 31 431T15 471Q15 494 31 509T71 525ZM178 650Q204 650 220 633T237 589V144Q237 130 242 121T257 108T278 104Q290 104 300 108T323 113Q337
113 348 100T360 64Q360 36 330 18T264 0Q243 0 218 3T170 20T132 62T117 139V589Q117 615 134 632T178 650Z" />
<glyph unicode="u" horiz-adv-x="587" d="M462 535Q488 535 505 518T522 474V220Q522 114 463 52T293 -10Q182 -10 124 52T65 220V474Q65 500 82 517T125 535Q151 535 168 518T185 474V220Q185 159 212 130T293 100Q348 100 375 129T402 220V474Q402 500 419 517T462
535Z" />
<glyph unicode="v" horiz-adv-x="562" d="M89 535Q108 535 124 526T148 497L295 161L273 151L423 496Q440 536 476 534Q501 534 516 519T532 480Q532 473 530 465T524 450L337 38Q321 2 286 0Q267 -3 250 7T223 38L37 450Q35 455 33 463T30 482Q30 500 46 517T89 535Z" />
<glyph unicode="w" horiz-adv-x="768" d="M681 535Q704 535 721 518T738 473Q738 466 737 461T734 450L581 38Q574 18 556 8T518 0Q484 2 467 38L368 323L394 322L301 38Q284 2 250 0Q231 -3 213 7T187 38L34 450Q30 461 30 473Q30 497 46 516T90 535Q109 535
124 526T145 497L266 169L241 171L332 418Q348 455 387 455Q409 455 420 446T439 418L530 171L500 167L623 497Q635 535 681 535Z" />
<glyph unicode="x" horiz-adv-x="487" d="M76 535Q105 535 125 510L459 95Q472 79 472 59Q472 34 453 16T411 -2Q382 -2 362 24L28 439Q15 455 15 475Q15 501 33 518T76 535ZM77 -1Q57 -1 38 14T18 52Q18 72 33 90L186 277L246 177L125 24Q106 -1 77 -1ZM410 535Q434
535 450 519T467 481Q467 471 464 461T453 442L302 258L239 345L362 508Q382 535 410 535Z" />
<glyph unicode="y" horiz-adv-x="587" d="M462 535Q488 535 505 518T522 474V49Q522 -43 488 -97T395 -176T265 -200Q233 -200 197 -195T138 -180Q108 -167 97 -148T92 -106Q101 -77 121 -67T163 -64Q179 -69 205 -79T265 -90Q311 -90 341 -78T387 -36T403 45V112L424
88Q407 55 382 34T321 1T241 -10Q188 -10 149 14T87 82T65 182V474Q65 500 82 517T125 535Q151 535 168 518T185 474V218Q185 153 213 127T293 100Q328 100 352 113T389 153T402 218V474Q402 500 419 517T462 535Z" />
<glyph unicode="z" horiz-adv-x="484" d="M406 110Q430 110 446 95T462 55Q462 32 446 16T406 0H84Q59 0 44 18T30 54Q31 69 34 80T49 107L298 429L296 415H93Q69 415 53 431T37 471Q37 494 53 509T93 525H401Q424 525 440 508T454 465Q453 455 451 445T437 421L192
104V110H406Z" />
<glyph unicode="{" horiz-adv-x="401" d="M345 -202Q341 -202 338 -202T330 -201Q257 -186 218 -160T163 -95T147 -10L149 92Q149 130 138 154T106 189T60 202H56Q37 202 24 215T10 248Q10 268 23 281T56 294H62Q87 296 106 307T137 343T149 404L147 506Q147 541
155 571T184 626T239 668T330 697Q358 702 372 688T386 653Q386 640 377 629T352 613Q312 599 292 583T266 544T259 489L261 385Q261 327 232 295T153 246V250Q203 234 232 202T261 111L259 7Q259 -24 265 -46T292 -84T352 -117Q386 -130 386 -159Q386 -176 374
-189T345 -202Z" />
<glyph unicode="|" horiz-adv-x="248" d="M184 -64Q184 -90 167 -107T123 -125Q98 -125 81 -108T64 -64V740Q64 766 81 783T125 801Q151 801 167 784T184 740V-64Z" />
<glyph unicode="}" horiz-adv-x="401" d="M54 -201Q35 -201 25 -185T15 -155Q15 -141 24 -131T49 -115Q90 -101 109 -85T135 -45T142 9L140 113Q140 172 169 204T248 252V248Q199 265 170 297T140 387L142 491Q142 523 136 544T109 583T49 615Q15 628 15 657Q15
674 27 687T56 700Q60 700 63 700T71 699Q144 685 183 658T238 593T254 508L252 406Q252 368 263 344T295 309T341 296H345Q364 296 377 283T391 250Q391 230 378 217T345 204H339Q314 203 295 191T264 156T252 94L254 -8Q254 -43 246 -73T218 -128T162 -170T71
-199Q67 -200 64 -200T54 -201Z" />
<glyph unicode="~" horiz-adv-x="540" d="M376 235Q355 235 325 244T261 266T201 287T160 297Q150 297 144 292T140 276Q147 254 135 241T105 227Q83 227 67 249T50 308Q50 343 63 364T104 396T173 406Q194 406 223 397T284 375T341 354T380 344Q391 344 397 349T400
365Q393 388 405 401T435 414Q458 414 474 395T490 345Q490 290 465 263T376 235Z" />
<glyph unicode="&#xa0;" horiz-adv-x="280" />
<glyph unicode="&#xa1;" horiz-adv-x="267" d="M133 320Q167 320 170 282L199 -86Q201 -117 183 -138T134 -159Q104 -159 85 -138T69 -86L97 282Q100 320 133 320ZM140 541Q169 541 184 526T200 481V464Q200 435 185 420T140 404H127Q98 404 83 419T67 464V481Q67
510 82 525T127 541H140Z" />
<glyph unicode="&#xa2;" horiz-adv-x="515" d="M348 61Q348 35 331 18T287 0Q262 0 245 17T228 61V113L238 157V557L228 612V659Q228 685 245 702T289 720Q315 720 331 703T348 659V609L338 568V157L348 113V61ZM293 80Q214 80 156 116T67 216T35 357Q35 439 68
501T161 599T298 635Q355 635 397 623T463 590T487 538Q487 518 474 500T433 481Q420 481 411 484T393 495T376 512Q360 530 341 533T292 536Q253 536 222 514T173 452T155 357Q155 303 174 263T226 199T299 176Q331 176 349 182T381 202Q392 213 404 222T439 231Q465
231 479 213T493 171Q493 146 465 126T392 93T293 80Z" />
<glyph unicode="&#xa3;" horiz-adv-x="624" d="M82 318Q59 318 44 333T28 372Q28 394 43 408T82 422H370Q393 422 408 407T424 368Q424 346 409 332T370 318H82ZM204 137Q245 137 285 125T363 100T437 87Q454 87 477 95T514 110Q523 115 534 118T555 122Q579 122
591 106T604 68Q604 42 585 24T525 -9Q506 -16 481 -18T436 -20Q412 -19 377 -12T305 5T236 22T186 29Q174 29 160 28T134 25T111 20Q94 15 84 8T57 0Q39 0 25 13T11 50Q11 73 25 90T64 117Q84 125 109 129T159 135T204 137ZM203 72L109 95Q122 103 132 120T149
161T156 217Q156 257 146 294T124 366T101 433T91 494Q91 557 118 605T197 682T321 710Q362 710 398 701T462 675Q488 660 503 642T519 604Q519 579 501 561T459 543Q446 543 434 548T415 560Q396 578 374 587T322 596Q287 596 263 581T227 541T215 491Q215 469
225 439T247 376T270 309T280 248Q280 209 268 177T237 118T203 72Z" />
<glyph unicode="&#xa4;" horiz-adv-x="579" d="M128 529Q150 529 171 508L240 438Q226 424 211 409T182 380T152 350L84 419Q63 440 63 462Q63 476 73 491T98 518T128 529ZM445 527Q461 527 476 518T501 493T512 463Q512 441 491 420L420 350Q406 365 392 379T363
408T333 437L403 507Q423 527 445 527ZM446 78Q425 78 403 100L335 167Q350 182 364 196T394 226T423 255L490 187Q510 167 510 145Q510 131 501 115T476 89T446 78ZM128 80Q114 80 99 90T73 114T62 144Q62 166 84 188L155 259Q170 245 184 231T213 202T242 172L171
101Q150 80 128 80ZM289 113Q237 113 194 138T126 207T100 303Q100 356 125 399T194 467T289 493Q342 493 385 468T453 399T479 303Q479 251 454 208T385 139T289 113ZM290 224Q313 224 328 234T351 263T359 303Q359 326 351 344T328 372T290 383Q268 383 252 373T228
344T220 303Q220 281 228 263T252 235T290 224Z" />
<glyph unicode="&#xa5;" horiz-adv-x="596" d="M164 114Q138 114 121 129T103 167Q103 190 120 204T164 219H458Q484 219 501 205T519 167Q519 144 502 129T458 114H164ZM162 258Q136 258 119 273T101 311Q101 334 118 348T162 363H456Q482 363 499 349T517 311Q517
288 500 273T456 258H162ZM521 703Q544 703 562 686T581 641Q581 632 579 623T570 604L350 279L368 348V61Q368 35 350 18T303 0Q275 0 257 17T238 61V340L246 308L35 595Q25 608 21 620T17 642Q17 660 28 674T56 695T87 703Q117 703 136 675L324 385L296 389L471
673Q480 688 494 695T521 703Z" />
<glyph unicode="&#xa6;" horiz-adv-x="258" d="M189 467Q189 441 172 424T128 406Q103 406 86 423T69 467V740Q69 766 86 783T130 801Q156 801 172 784T189 740V467ZM189 -64Q189 -90 172 -107T128 -125Q103 -125 86 -108T69 -64V209Q69 235 86 252T130 270Q156
270 172 253T189 209V-64Z" />
<glyph unicode="&#xa7;" horiz-adv-x="559" d="M529 278Q523 196 466 162T301 123L393 196Q443 165 469 135T495 49Q495 32 487 1T456 -62T392 -117T282 -140Q242 -140 198 -131T115 -105T55 -64Q42 -50 36 -33T30 5Q32 27 48 41T88 56Q96 56 109 53T137 32Q151
16 168 2T212 -20T282 -29Q300 -29 316 -26T346 -17T366 0T373 23Q373 46 350 61T286 87T198 109Q118 127 79 169T40 276Q40 289 44 313T64 364T111 411T197 435L182 377Q127 401 108 436T88 511Q88 565 109 604T165 669T239 705T315 714Q374 710 419 687T496 619Q503
610 503 587Q503 565 488 548T440 532Q433 532 426 539Q400 568 367 582T299 597Q272 597 252 589T221 566T210 532Q210 513 223 499T256 475T299 459T343 448Q441 429 487 386T529 278ZM232 232L340 205Q359 204 374 210T398 230T407 261Q407 278 398 289T371
307L247 339Q231 345 214 342T185 325T173 289Q173 279 182 263T232 232Z" />
<glyph unicode="&#xa8;" horiz-adv-x="422" d="M308 600Q277 600 263 611T249 650V668Q249 697 264 707T310 718Q343 718 357 707T372 668V650Q372 620 357 610T308 600ZM109 600Q78 600 64 611T50 650V668Q50 696 65 707T109 718Q144 718 158 708T173 668V650Q173
620 158 610T109 600Z" />
<glyph unicode="&#xa9;" horiz-adv-x="780" d="M390 -10Q316 -10 251 18T136 95T58 210T30 350Q30 425 58 490T135 604T250 682T390 710Q464 710 529 682T644 605T722 490T750 350Q750 276 722 211T645 96T530 18T390 -10ZM390 64Q449 64 501 86T592 147T654 239T676
350Q676 410 654 461T593 552T501 614T390 636Q331 636 280 614T189 553T127 462T104 350Q104 291 126 239T187 148T279 86T390 64ZM407 136Q353 136 302 161T219 235T186 350Q186 408 216 456T296 534T407 564Q462 564 507 540Q527 531 530 510T521 472Q511 459
495 457T465 462Q452 468 438 471T407 474Q371 474 342 457T294 412T276 350Q276 311 295 283T344 241T407 226Q422 226 436 229T465 238Q479 245 495 243T521 227Q535 209 531 189T508 159Q484 147 459 142T407 136Z" />
<glyph unicode="&#xaa;" horiz-adv-x="354" d="M139 391Q96 391 67 414T24 478T10 565Q10 609 27 645T76 703T153 725Q199 725 223 694T248 596L234 657V684Q234 699 248 711T284 724Q307 724 320 712T334 684V441Q334 423 319 412T284 401Q262 401 248 412T234
441V474L248 516Q248 491 236 462T199 412T139 391ZM177 469Q201 469 219 491T238 555Q238 597 222 622T173 647Q147 647 129 623T110 565Q110 526 126 498T177 469Z" />
<glyph unicode="&#xab;" horiz-adv-x="486" d="M402 50Q378 50 363 71L244 236Q235 250 235 264Q235 279 244 291L365 455Q379 475 403 475Q420 475 437 462T455 425Q455 408 442 390L344 257V272L445 136Q451 129 453 120T456 103Q456 78 438 64T402 50ZM438
50Q414 50 399 71L280 236Q271 250 271 264Q271 279 280 291L401 455Q415 475 439 475Q456 475 473 462T491 425Q491 408 478 390L380 257V272L481 136Q487 129 489 120T492 103Q492 78 474 64T438 50Z" />
<glyph unicode="&#xac;" horiz-adv-x="682" d="M566 130Q539 130 521 147T502 191V320L522 306H101Q79 306 65 323T50 367Q50 393 64 409T101 426H581Q604 426 618 412T632 375V191Q632 164 614 147T566 130Z" />
<glyph unicode="&#xad;" horiz-adv-x="396" d="M111 247Q85 247 68 264T50 307Q50 333 67 349T111 366H285Q311 366 328 349T346 305Q346 280 329 264T285 247H111Z" />
<glyph unicode="&#xae;" horiz-adv-x="490" d="M181 363Q170 363 163 370T155 391V581Q155 589 161 595T176 602H261Q289 602 310 581T331 528Q331 511 319 495T292 471V475Q305 466 312 455T320 432Q321 420 322 412T330 399Q338 393 338 383T332 368Q323 361
314 362T297 367Q289 372 281 385T272 426Q272 440 265 448T237 456H198L206 465V391Q206 378 199 371T181 363ZM250 499Q264 499 273 507T283 527Q283 539 274 546T250 553H200L206 559V493L202 499H250ZM245 260Q183 260 132 290T50 371T20 485Q20 547 50 598T131
679T245 710Q307 710 358 680T439 598T470 485Q470 423 440 372T358 290T245 260ZM245 318Q291 318 328 340T389 401T412 485Q412 531 389 568T329 629T245 652Q199 652 161 629T101 569T78 485Q78 439 100 401T161 341T245 318Z" />
<glyph unicode="&#xaf;" horiz-adv-x="442" d="M100 600Q50 600 50 645Q50 689 100 689H342Q392 689 392 645Q392 600 342 600H100Z" />
<glyph unicode="&#xb0;" horiz-adv-x="393" d="M196 385Q148 385 111 407T52 467T30 547Q30 592 51 629T110 688T196 710Q245 710 282 688T341 629T363 547Q363 504 342 467T283 408T196 385ZM196 465Q231 465 252 490T273 547Q273 580 252 605T196 630Q162 630
141 606T120 547Q120 516 141 491T196 465Z" />
<glyph unicode="&#xb1;" horiz-adv-x="578" d="M96 363Q72 363 56 379T40 419Q40 443 56 458T96 473H503Q527 473 543 458T559 418Q559 394 543 379T503 363H96ZM298 225Q270 225 252 243T233 289V569Q233 597 252 615T299 633Q328 633 345 615T363 569V289Q363
261 345 243T298 225ZM96 69Q72 69 56 85T40 125Q40 149 56 165T96 181H482Q506 181 522 165T538 125Q538 101 522 85T482 69H96Z" />
<glyph unicode="&#xb2;" horiz-adv-x="364" d="M96 377Q76 377 63 390T50 422Q50 435 55 443T69 461L144 530Q171 556 190 582T210 633Q210 653 200 662T173 672Q161 672 150 665T130 647Q123 639 115 637T99 634Q77 634 66 646T54 675Q54 698 75 717T126 747T183
758Q229 758 257 740T299 693T312 635Q312 612 301 590T272 546T233 505L166 447L160 457H273Q291 457 302 446T314 417Q314 400 303 389T273 377H96Z" />
<glyph unicode="&#xb3;" horiz-adv-x="355" d="M175 372Q144 372 120 377T82 391Q60 404 60 428Q60 445 71 457T101 470Q106 470 110 470T122 464Q128 460 138 454T166 448Q188 448 206 459T225 499Q225 519 210 530T170 541Q153 541 141 535T110 528Q97 528 86
538T75 564Q75 572 77 581T87 596L187 676L212 672H101Q83 672 72 683T60 713Q60 730 71 741T101 752H253Q273 752 286 739T299 706Q299 684 286 674L186 596L177 608Q182 610 187 611T196 613Q239 613 265 597T303 556T315 501Q315 459 294 430T241 387T175 372Z"
/>
<glyph unicode="&#xb4;" horiz-adv-x="261" d="M85 599Q77 599 65 607T53 632Q53 641 59 651L117 753Q126 769 140 781T172 793Q200 793 213 779T225 743Q224 733 220 722T206 700L130 616Q120 605 108 602T85 599Z" />
<glyph unicode="&#xb5;" horiz-adv-x="606" d="M141 -160Q112 -160 97 -145T81 -100L80 454Q80 480 97 497T140 515Q166 515 183 498T200 454V238Q200 200 208 169T237 119T297 100Q326 100 348 110T385 140T408 184T416 238V454Q416 480 433 497T476 515Q502
515 519 498T536 454V61Q536 35 519 18T476 0Q450 0 433 17T416 61V90L418 83Q414 73 397 51T350 9T275 -10Q266 -10 251 -7T220 4T196 25L200 51V-100Q200 -129 185 -144T141 -160Z" />
<glyph unicode="&#xb6;" horiz-adv-x="632" d="M508 0Q495 0 479 10T462 46V655L476 625H389L399 644V71Q399 22 380 -7T331 -50T264 -63Q245 -63 224 -60T188 -48Q173 -40 165 -23T167 14Q175 30 189 34T214 35Q226 32 237 30T259 27Q282 27 295 42T309 91V323L335
285H249Q176 285 129 306T58 373T35 486Q35 561 63 608T148 677T292 700H511Q529 700 540 689T552 659V46Q552 21 537 11T508 0Z" />
<glyph unicode="&#xb7;" horiz-adv-x="222" d="M104 238Q75 238 60 253T44 298V315Q44 344 59 359T104 375H117Q146 375 161 360T177 315V298Q177 269 162 254T117 238H104Z" />
<glyph unicode="&#xb8;" horiz-adv-x="261" d="M115 -151Q105 -151 90 -146T62 -130T50 -105Q50 -90 62 -75L140 30H211L156 -119Q144 -151 115 -151Z" />
<glyph unicode="&#xb9;" horiz-adv-x="320" d="M195 395Q176 395 163 408T150 441V676L157 652L116 624Q109 619 101 616T84 613Q62 613 51 629T40 661Q40 686 65 700L161 755Q180 763 190 763Q212 763 226 749T240 712V441Q240 421 228 408T195 395Z" />
<glyph unicode="&#xba;" horiz-adv-x="350" d="M335 549Q335 504 314 469T257 413T174 392Q129 392 93 412T36 468T15 549Q15 595 36 631T93 688T174 710Q220 710 256 689T314 631T335 549ZM240 549Q240 582 223 603T174 625Q144 625 127 604T110 549Q110 518
127 498T174 477Q205 477 222 497T240 549Z" />
<glyph unicode="&#xbb;" horiz-adv-x="497" d="M315 475Q339 475 354 454L473 289Q482 276 482 261Q482 246 473 234L352 70Q338 50 314 50Q297 50 280 64T262 100Q262 117 275 135L373 268V253L272 389Q266 397 264 405T261 422Q261 448 280 461T315 475ZM84
475Q108 475 123 454L242 289Q251 276 251 261Q251 246 242 234L121 70Q107 50 83 50Q66 50 49 64T31 100Q31 117 44 135L142 268V253L41 389Q35 397 33 405T30 422Q30 448 49 461T84 475Z" />
<glyph unicode="&#xbc;" horiz-adv-x="827" d="M195 343Q176 343 163 356T150 389V624L157 600L116 572Q109 567 101 564T84 561Q62 561 51 577T40 609Q40 634 65 648L161 703Q180 711 190 711Q212 711 226 697T240 660V389Q240 369 228 356T195 343ZM215 -2Q199
-2 181 11T163 47Q163 60 173 77L571 678Q589 702 612 702Q629 702 646 689T664 653Q664 640 654 623L256 22Q238 -2 215 -2ZM680 0Q661 0 648 13T635 46V310L677 293L542 142L546 165H746Q787 165 787 125Q787 85 746 85H507Q485 85 470 99T454 135Q454 143 456
152T465 168L630 360Q641 374 654 377T675 381Q697 381 711 367T725 330V46Q725 26 713 13T680 0Z" />
<glyph unicode="&#xbd;" horiz-adv-x="844" d="M195 343Q176 343 163 356T150 389V624L157 600L116 572Q109 567 101 564T84 561Q62 561 51 577T40 609Q40 634 65 648L161 703Q180 711 190 711Q212 711 226 697T240 660V389Q240 369 228 356T195 343ZM192 -2Q176
-2 158 11T140 47Q140 60 150 77L548 678Q566 702 589 702Q606 702 623 689T641 653Q641 640 631 623L233 22Q215 -2 192 -2ZM586 0Q566 0 553 13T540 45Q540 58 545 66T559 84L634 153Q661 179 680 205T700 256Q700 276 690 285T663 295Q651 295 640 288T620 270Q613
262 605 260T589 257Q567 257 556 269T544 298Q544 321 565 340T616 370T673 381Q719 381 747 363T789 316T802 258Q802 235 791 213T762 169T723 128L656 70L650 80H763Q781 80 792 69T804 40Q804 23 793 12T763 0H586Z" />
<glyph unicode="&#xbe;" horiz-adv-x="843" d="M165 320Q134 320 110 325T72 339Q50 352 50 376Q50 393 61 405T91 418Q96 418 100 418T112 412Q118 408 128 402T156 396Q178 396 196 407T215 447Q215 467 200 478T160 489Q143 489 131 483T100 476Q87 476 76
486T65 512Q65 520 67 529T77 544L177 624L202 620H91Q73 620 62 631T50 661Q50 678 61 689T91 700H243Q263 700 276 687T289 654Q289 632 276 622L176 544L167 556Q172 558 177 559T186 561Q229 561 255 545T293 504T305 449Q305 407 284 378T231 335T165 320ZM227
-2Q211 -2 193 11T175 47Q175 60 185 77L583 678Q601 702 624 702Q641 702 658 689T676 653Q676 640 666 623L268 22Q250 -2 227 -2ZM696 0Q677 0 664 13T651 46V310L693 293L558 142L562 165H762Q803 165 803 125Q803 85 762 85H523Q501 85 486 99T470 135Q470
143 472 152T481 168L646 360Q657 374 670 377T691 381Q713 381 727 367T741 330V46Q741 26 729 13T696 0Z" />
<glyph unicode="&#xbf;" horiz-adv-x="527" d="M355 209Q355 183 338 166T295 148Q255 148 222 136T169 95T149 21Q149 -12 165 -38T211 -80T275 -95Q303 -95 328 -85T372 -58Q388 -44 411 -38T456 -48Q480 -66 482 -91T463 -137Q427 -174 379 -194T275 -215Q207
-215 151 -184T62 -99T29 21Q29 71 44 109T86 175T150 219T230 243Q232 244 233 245T235 248V285Q235 311 252 328T295 346Q321 346 338 329T355 285V209ZM300 525Q329 525 344 510T360 465V448Q360 419 345 404T300 388H287Q258 388 243 403T227 448V465Q227 494
242 509T287 525H300Z" />
<glyph unicode="&#xc0;" horiz-adv-x="639" d="M332 543L116 35Q109 16 95 6T63 -5Q36 -5 23 10T10 47Q10 56 13 66L262 664Q270 684 286 695T322 704Q340 704 355 694T378 664L624 78Q629 65 629 54Q629 27 612 11T573 -5Q555 -5 541 6T518 36L303 537L332 543ZM147
157L202 272H472L491 157H147ZM320 742Q315 742 309 743T297 748L197 801Q160 821 160 854Q160 877 178 890T213 903Q227 903 239 897T262 881L348 805Q356 798 359 792T362 778Q362 762 351 752T320 742Z" />
<glyph unicode="&#xc1;" horiz-adv-x="639" d="M332 543L116 35Q109 16 95 6T63 -5Q36 -5 23 10T10 47Q10 56 13 66L262 664Q270 684 286 695T322 704Q340 704 355 694T378 664L624 78Q629 65 629 54Q629 27 612 11T573 -5Q555 -5 541 6T518 36L303 537L332 543ZM147
157L202 272H472L491 157H147ZM323 738Q304 738 293 748T281 774Q281 781 284 787T295 801L381 877Q392 886 404 892T430 899Q447 899 465 886T483 850Q483 835 474 821T446 797L346 744Q340 740 334 739T323 738Z" />
<glyph unicode="&#xc2;" horiz-adv-x="639" d="M332 543L116 35Q109 16 95 6T63 -5Q36 -5 23 10T10 47Q10 56 13 66L262 664Q270 684 286 695T322 704Q340 704 355 694T378 664L624 78Q629 65 629 54Q629 27 612 11T573 -5Q555 -5 541 6T518 36L303 537L332 543ZM147
157L202 272H472L491 157H147ZM340 811L256 762Q239 752 227 746T205 740Q192 740 183 748T174 765Q174 773 177 779T189 795L252 867Q265 881 279 888T313 896H329Q349 896 363 889T390 867L453 795Q462 785 465 779T468 765Q468 756 460 748T437 740Q427 740
415 746T386 762L302 811H340Z" />
<glyph unicode="&#xc3;" horiz-adv-x="639" d="M332 543L116 35Q109 16 95 6T63 -5Q36 -5 23 10T10 47Q10 56 13 66L262 664Q270 684 286 695T322 704Q340 704 355 694T378 664L624 78Q629 65 629 54Q629 27 612 11T573 -5Q555 -5 541 6T518 36L303 537L332 543ZM147
157L202 272H472L491 157H147ZM187 736Q165 736 149 755T132 807Q132 839 160 867T243 895Q277 895 306 880T359 849T402 833Q413 833 419 838T422 854Q415 877 427 890T457 903Q480 903 496 884T512 834Q512 817 502 796T471 760T417 744Q380 744 347 759T287
790T242 806Q232 806 226 801T222 785Q229 763 217 750T187 736Z" />
<glyph unicode="&#xc4;" horiz-adv-x="639" d="M332 543L116 35Q109 16 95 6T63 -5Q36 -5 23 10T10 47Q10 56 13 66L262 664Q270 684 286 695T322 704Q340 704 355 694T378 664L624 78Q629 65 629 54Q629 27 612 11T573 -5Q555 -5 541 6T518 36L303 537L332 543ZM147
157L202 272H472L491 157H147ZM420 760Q389 760 375 771T360 810V828Q360 857 375 867T420 878Q454 878 468 867T483 828V810Q483 781 468 771T420 760ZM221 760Q190 760 176 771T161 810V828Q161 857 176 867T222 878Q255 878 269 867T284 828V810Q284 781 269
771T221 760Z" />
<glyph unicode="&#xc5;" horiz-adv-x="643" d="M322 635Q292 635 266 650T224 690T208 744Q208 775 224 800T266 840T322 855Q352 855 378 840T420 800T436 744Q436 715 420 690T378 650T322 635ZM322 705Q341 705 353 716T366 744Q366 765 353 775T322 785Q303
785 291 775T278 744Q278 727 290 716T322 705ZM332 543L116 35Q109 16 95 6T63 -5Q36 -5 23 10T10 47Q10 56 13 66L262 664Q270 684 286 695T322 704Q340 704 355 694T378 664L624 78Q629 65 629 54Q629 27 612 11T573 -5Q555 -5 541 6T518 36L303 537L332 543ZM147
157L202 272H472L491 157H147Z" />
<glyph unicode="&#xc6;" horiz-adv-x="884" d="M197 256H425L407 218V507L428 501L103 19Q85 -5 60 -5Q41 -5 24 9T4 48Q3 68 17 89L425 674Q436 689 450 694T481 700H783Q809 700 826 684T844 641Q844 616 827 601T783 585H522L532 594V391L523 410H738Q764 410
781 394T799 351Q799 326 782 311T738 295H522L532 310V89L522 115H783Q809 115 826 98T844 57Q844 32 827 16T783 0H468Q442 0 425 17T407 61V156L432 143H138L197 256Z" />
<glyph unicode="&#xc7;" horiz-adv-x="627" d="M565 666Q591 653 595 625T581 574Q568 556 548 554T506 562Q482 573 456 579T400 585Q346 585 304 568T231 520T186 445T170 350Q170 289 187 244T236 169T309 125T400 110Q427 110 454 115T506 133Q527 143 547
140T582 119Q602 94 597 68T566 29Q540 16 513 8T457 -5T400 -10Q328 -10 264 13T149 81T69 193T40 350Q40 427 66 492T141 604T256 678T400 705Q444 705 486 695T565 666ZM329 -151Q319 -151 304 -146T276 -130T264 -105Q264 -90 276 -75L354 30H425L370 -119Q358
-151 329 -151Z" />
<glyph unicode="&#xc8;" horiz-adv-x="572" d="M136 700H471Q497 700 514 684T532 641Q532 616 515 601T471 585H191L200 602V407L192 415H426Q452 415 469 399T487 356Q487 331 470 316T426 300H195L200 308V106L192 115H471Q497 115 514 98T532 57Q532 32 515
16T471 0H136Q110 0 93 17T75 61V639Q75 665 92 682T136 700ZM304 742Q299 742 293 743T281 748L181 801Q144 821 144 854Q144 877 162 890T197 903Q211 903 223 897T246 881L332 805Q340 798 343 792T346 778Q346 762 335 752T304 742Z" />
<glyph unicode="&#xc9;" horiz-adv-x="572" d="M136 700H471Q497 700 514 684T532 641Q532 616 515 601T471 585H191L200 602V407L192 415H426Q452 415 469 399T487 356Q487 331 470 316T426 300H195L200 308V106L192 115H471Q497 115 514 98T532 57Q532 32 515
16T471 0H136Q110 0 93 17T75 61V639Q75 665 92 682T136 700ZM307 738Q288 738 277 748T265 774Q265 781 268 787T279 801L365 877Q376 886 388 892T414 899Q431 899 449 886T467 850Q467 835 458 821T430 797L330 744Q324 740 318 739T307 738Z" />
<glyph unicode="&#xca;" horiz-adv-x="572" d="M136 700H471Q497 700 514 684T532 641Q532 616 515 601T471 585H191L200 602V407L192 415H426Q452 415 469 399T487 356Q487 331 470 316T426 300H195L200 308V106L192 115H471Q497 115 514 98T532 57Q532 32 515
16T471 0H136Q110 0 93 17T75 61V639Q75 665 92 682T136 700ZM324 811L240 762Q223 752 211 746T189 740Q176 740 167 748T158 765Q158 773 161 779T173 795L236 867Q249 881 263 888T297 896H313Q333 896 347 889T374 867L437 795Q446 785 449 779T452 765Q452
756 444 748T421 740Q411 740 399 746T370 762L286 811H324Z" />
<glyph unicode="&#xcb;" horiz-adv-x="572" d="M136 700H471Q497 700 514 684T532 641Q532 616 515 601T471 585H191L200 602V407L192 415H426Q452 415 469 399T487 356Q487 331 470 316T426 300H195L200 308V106L192 115H471Q497 115 514 98T532 57Q532 32 515
16T471 0H136Q110 0 93 17T75 61V639Q75 665 92 682T136 700ZM404 760Q373 760 359 771T344 810V828Q344 857 359 867T404 878Q438 878 452 867T467 828V810Q467 781 452 771T404 760ZM205 760Q174 760 160 771T145 810V828Q145 857 160 867T206 878Q239 878 253
867T268 828V810Q268 781 253 771T205 760Z" />
<glyph unicode="&#xcc;" horiz-adv-x="275" d="M200 61Q200 35 181 18T137 0Q109 0 92 17T75 61V639Q75 665 93 682T139 700Q163 700 181 683T200 639V61ZM394 742Q389 742 383 743T371 748L271 801Q234 821 234 854Q234 877 252 890T287 903Q301 903 313 897T336
881L422 805Q430 798 433 792T436 778Q436 762 425 752T394 742Z" />
<glyph unicode="&#xcd;" horiz-adv-x="275" d="M200 61Q200 35 181 18T137 0Q109 0 92 17T75 61V639Q75 665 93 682T139 700Q163 700 181 683T200 639V61ZM141 738Q122 738 111 748T99 774Q99 781 102 787T113 801L199 877Q210 886 222 892T248 899Q265 899 283
886T301 850Q301 835 292 821T264 797L164 744Q158 740 152 739T141 738Z" />
<glyph unicode="&#xce;" horiz-adv-x="275" d="M200 61Q200 35 181 18T137 0Q109 0 92 17T75 61V639Q75 665 93 682T139 700Q163 700 181 683T200 639V61ZM158 811L74 762Q57 752 45 746T23 740Q10 740 1 748T-8 765Q-8 773 -5 779T7 795L70 867Q83 881 97 888T131
896H147Q167 896 181 889T208 867L271 795Q280 785 283 779T286 765Q286 756 278 748T255 740Q245 740 233 746T204 762L120 811H158Z" />
<glyph unicode="&#xcf;" horiz-adv-x="275" d="M200 61Q200 35 181 18T137 0Q109 0 92 17T75 61V639Q75 665 93 682T139 700Q163 700 181 683T200 639V61ZM494 760Q463 760 449 771T434 810V828Q434 857 449 867T494 878Q528 878 542 867T557 828V810Q557 781
542 771T494 760ZM295 760Q264 760 250 771T235 810V828Q235 857 250 867T296 878Q329 878 343 867T358 828V810Q358 781 343 771T295 760Z" />
<glyph unicode="&#xd0;" horiz-adv-x="715" d="M375 700Q447 700 503 673T597 598T655 486T675 350Q675 253 640 174T539 47T375 0H136Q110 0 93 17T75 61V639Q75 665 92 682T136 700H375ZM365 115Q428 115 468 147T526 233T545 350Q545 397 535 439T502 514T446
566T365 585H190L200 594V104L194 115H365ZM313 297Q287 297 270 312T252 353Q252 376 269 391T313 407H487Q513 407 530 392T548 353Q548 328 531 313T487 297H313Z" />
<glyph unicode="&#xd1;" horiz-adv-x="735" d="M606 700Q630 700 645 684T660 644V61Q660 35 643 18T599 0Q586 0 573 4T552 17L159 516L185 532V56Q185 32 170 16T129 0Q105 0 90 16T75 56V639Q75 665 92 682T136 700Q150 700 165 695T187 678L568 192L551 180V644Q551
668 566 684T606 700ZM233 736Q211 736 195 755T178 807Q178 839 206 867T289 895Q323 895 352 880T405 849T448 833Q459 833 465 838T468 854Q461 877 473 890T503 903Q526 903 542 884T558 834Q558 817 548 796T517 760T463 744Q426 744 393 759T333 790T288
806Q278 806 272 801T268 785Q275 763 263 750T233 736Z" />
<glyph unicode="&#xd2;" horiz-adv-x="759" d="M719 350Q719 275 694 210T624 96T516 18T379 -10Q305 -10 243 18T136 95T65 210T40 350Q40 425 65 490T135 604T243 682T379 710Q453 710 515 682T623 605T694 490T719 350ZM589 350Q589 417 562 471T488 558T379
590Q317 590 270 558T197 472T170 350Q170 283 196 229T270 142T379 110Q441 110 488 142T562 228T589 350ZM378 742Q373 742 367 743T355 748L255 801Q218 821 218 854Q218 877 236 890T271 903Q285 903 297 897T320 881L406 805Q414 798 417 792T420 778Q420
762 409 752T378 742Z" />
<glyph unicode="&#xd3;" horiz-adv-x="759" d="M719 350Q719 275 694 210T624 96T516 18T379 -10Q305 -10 243 18T136 95T65 210T40 350Q40 425 65 490T135 604T243 682T379 710Q453 710 515 682T623 605T694 490T719 350ZM589 350Q589 417 562 471T488 558T379
590Q317 590 270 558T197 472T170 350Q170 283 196 229T270 142T379 110Q441 110 488 142T562 228T589 350ZM381 738Q362 738 351 748T339 774Q339 781 342 787T353 801L439 877Q450 886 462 892T488 899Q505 899 523 886T541 850Q541 835 532 821T504 797L404
744Q398 740 392 739T381 738Z" />
<glyph unicode="&#xd4;" horiz-adv-x="759" d="M719 350Q719 275 694 210T624 96T516 18T379 -10Q305 -10 243 18T136 95T65 210T40 350Q40 425 65 490T135 604T243 682T379 710Q453 710 515 682T623 605T694 490T719 350ZM589 350Q589 417 562 471T488 558T379
590Q317 590 270 558T197 472T170 350Q170 283 196 229T270 142T379 110Q441 110 488 142T562 228T589 350ZM398 811L314 762Q297 752 285 746T263 740Q250 740 241 748T232 765Q232 773 235 779T247 795L310 867Q323 881 337 888T371 896H387Q407 896 421 889T448
867L511 795Q520 785 523 779T526 765Q526 756 518 748T495 740Q485 740 473 746T444 762L360 811H398Z" />
<glyph unicode="&#xd5;" horiz-adv-x="759" d="M719 350Q719 275 694 210T624 96T516 18T379 -10Q305 -10 243 18T136 95T65 210T40 350Q40 425 65 490T135 604T243 682T379 710Q453 710 515 682T623 605T694 490T719 350ZM589 350Q589 417 562 471T488 558T379
590Q317 590 270 558T197 472T170 350Q170 283 196 229T270 142T379 110Q441 110 488 142T562 228T589 350ZM245 736Q223 736 207 755T190 807Q190 839 218 867T301 895Q335 895 364 880T417 849T460 833Q471 833 477 838T480 854Q473 877 485 890T515 903Q538
903 554 884T570 834Q570 817 560 796T529 760T475 744Q438 744 405 759T345 790T300 806Q290 806 284 801T280 785Q287 763 275 750T245 736Z" />
<glyph unicode="&#xd6;" horiz-adv-x="759" d="M719 350Q719 275 694 210T624 96T516 18T379 -10Q305 -10 243 18T136 95T65 210T40 350Q40 425 65 490T135 604T243 682T379 710Q453 710 515 682T623 605T694 490T719 350ZM589 350Q589 417 562 471T488 558T379
590Q317 590 270 558T197 472T170 350Q170 283 196 229T270 142T379 110Q441 110 488 142T562 228T589 350ZM478 760Q447 760 433 771T418 810V828Q418 857 433 867T478 878Q512 878 526 867T541 828V810Q541 781 526 771T478 760ZM279 760Q248 760 234 771T219
810V828Q219 857 234 867T280 878Q313 878 327 867T342 828V810Q342 781 327 771T279 760Z" />
<glyph unicode="&#xd7;" horiz-adv-x="501" d="M105 125Q84 125 67 142T50 181Q50 203 67 220L355 508Q372 525 395 525Q420 525 435 507T451 470Q451 448 433 430L145 143Q127 125 105 125ZM355 142L67 430Q51 447 51 470Q51 495 68 510T105 526Q127 526 145
508L433 220Q450 203 450 180Q450 155 433 140T395 125Q374 125 355 142Z" />
<glyph unicode="&#xd8;" horiz-adv-x="739" d="M105 -31Q86 -31 70 -17T54 19Q54 37 66 52L616 730Q624 740 634 744T655 749Q675 749 690 735T706 700Q706 682 694 667L144 -11Q137 -21 127 -26T105 -31ZM719 350Q719 275 694 210T624 96T516 18T379 -10Q305
-10 243 18T136 95T65 210T40 350Q40 425 65 490T135 604T243 682T379 710Q453 710 515 682T623 605T694 490T719 350ZM589 350Q589 417 562 471T488 558T379 590Q317 590 270 558T197 472T170 350Q170 283 196 229T270 142T379 110Q441 110 488 142T562 228T589
350Z" />
<glyph unicode="&#xd9;" horiz-adv-x="705" d="M572 701Q598 701 614 684T630 640V278Q630 195 595 131T497 31T353 -5Q271 -5 209 31T111 131T75 278V640Q75 666 93 683T139 701Q162 701 180 684T199 640V278Q199 228 220 192T277 135T353 115Q396 115 433 135T493
191T516 278V640Q516 666 531 683T572 701ZM351 742Q346 742 340 743T328 748L228 801Q191 821 191 854Q191 877 209 890T244 903Q258 903 270 897T293 881L379 805Q387 798 390 792T393 778Q393 762 382 752T351 742Z" />
<glyph unicode="&#xda;" horiz-adv-x="705" d="M572 701Q598 701 614 684T630 640V278Q630 195 595 131T497 31T353 -5Q271 -5 209 31T111 131T75 278V640Q75 666 93 683T139 701Q162 701 180 684T199 640V278Q199 228 220 192T277 135T353 115Q396 115 433 135T493
191T516 278V640Q516 666 531 683T572 701ZM354 738Q335 738 324 748T312 774Q312 781 315 787T326 801L412 877Q423 886 435 892T461 899Q478 899 496 886T514 850Q514 835 505 821T477 797L377 744Q371 740 365 739T354 738Z" />
<glyph unicode="&#xdb;" horiz-adv-x="705" d="M572 701Q598 701 614 684T630 640V278Q630 195 595 131T497 31T353 -5Q271 -5 209 31T111 131T75 278V640Q75 666 93 683T139 701Q162 701 180 684T199 640V278Q199 228 220 192T277 135T353 115Q396 115 433 135T493
191T516 278V640Q516 666 531 683T572 701ZM371 811L287 762Q270 752 258 746T236 740Q223 740 214 748T205 765Q205 773 208 779T220 795L283 867Q296 881 310 888T344 896H360Q380 896 394 889T421 867L484 795Q493 785 496 779T499 765Q499 756 491 748T468
740Q458 740 446 746T417 762L333 811H371Z" />
<glyph unicode="&#xdc;" horiz-adv-x="705" d="M572 701Q598 701 614 684T630 640V278Q630 195 595 131T497 31T353 -5Q271 -5 209 31T111 131T75 278V640Q75 666 93 683T139 701Q162 701 180 684T199 640V278Q199 228 220 192T277 135T353 115Q396 115 433 135T493
191T516 278V640Q516 666 531 683T572 701ZM451 760Q420 760 406 771T391 810V828Q391 857 406 867T451 878Q485 878 499 867T514 828V810Q514 781 499 771T451 760ZM252 760Q221 760 207 771T192 810V828Q192 857 207 867T253 878Q286 878 300 867T315 828V810Q315
781 300 771T252 760Z" />
<glyph unicode="&#xdd;" horiz-adv-x="596" d="M521 703Q544 703 562 686T581 641Q581 632 579 623T570 604L343 279L361 348V61Q361 35 344 18T303 0Q278 0 261 17T243 61V340L251 308L35 595Q25 608 21 620T17 642Q17 669 38 686T81 703Q109 703 130 675L322
410L294 414L471 673Q492 703 521 703ZM299 738Q280 738 269 748T257 774Q257 781 260 787T271 801L357 877Q368 886 380 892T406 899Q423 899 441 886T459 850Q459 835 450 821T422 797L322 744Q316 740 310 739T299 738Z" />
<glyph unicode="&#xde;" horiz-adv-x="603" d="M195 61Q195 35 178 18T134 0Q108 0 92 17T75 61V679Q75 705 92 722T136 740Q162 740 178 723T195 679V61ZM184 280H364Q383 280 401 294T431 333T443 385Q443 414 431 438T401 476T364 490H183L136 610H364Q416
610 461 580T535 499T563 385Q563 323 535 272T461 191T364 160H124L184 280Z" />
<glyph unicode="&#xdf;" horiz-adv-x="667" d="M177 0Q151 0 134 17T117 61V502Q117 556 133 599T181 674T256 721T355 737Q423 737 471 715T544 654T570 567Q570 532 554 505T512 459T458 426L455 430Q498 416 538 388T605 317T632 211Q632 146 605 96T531 18T423
-10Q367 -10 333 6T283 45Q273 59 274 81T300 119Q316 129 334 128T369 109Q379 99 395 93T428 86Q459 86 477 101T504 141T512 195Q512 241 496 271T450 319T384 346Q359 354 348 366T337 398Q337 418 344 431T365 452Q390 465 409 479T440 513T451 556Q451 592
423 609T349 627Q324 627 304 619T268 596T245 558T237 506V61Q237 35 220 18T177 0ZM91 380Q65 380 48 396T30 438Q30 463 47 479T91 495H185Q211 495 218 479T226 438Q226 413 219 397T185 380H91Z" />
<glyph unicode="&#xe0;" horiz-adv-x="628" d="M503 545Q529 545 546 528T563 484V61Q563 35 546 18T503 0Q477 0 460 17T443 61V110L465 101Q465 88 451 70T413 33T357 3T286 -10Q217 -10 161 25T73 123T40 267Q40 349 72 411T160 509T282 545Q325 545 361 532T423
499T464 459T479 424L443 411V484Q443 510 460 527T503 545ZM301 100Q345 100 378 122T429 182T448 267Q448 315 430 353T378 413T301 435Q258 435 225 413T174 353T155 267Q155 220 173 182T225 122T301 100ZM310 570Q305 570 299 571T287 576L187 629Q169 639
160 653T150 682Q150 705 168 718T203 731Q217 731 229 725T252 709L338 633Q352 620 352 606Q352 590 341 580T310 570Z" />
<glyph unicode="&#xe1;" horiz-adv-x="628" d="M503 545Q529 545 546 528T563 484V61Q563 35 546 18T503 0Q477 0 460 17T443 61V110L465 101Q465 88 451 70T413 33T357 3T286 -10Q217 -10 161 25T73 123T40 267Q40 349 72 411T160 509T282 545Q325 545 361 532T423
499T464 459T479 424L443 411V484Q443 510 460 527T503 545ZM301 100Q345 100 378 122T429 182T448 267Q448 315 430 353T378 413T301 435Q258 435 225 413T174 353T155 267Q155 220 173 182T225 122T301 100ZM312 569Q304 569 292 577T280 602Q280 611 286 621L344
723Q353 739 367 751T399 763Q427 763 440 749T452 713Q451 703 447 692T433 670L357 586Q347 575 335 572T312 569Z" />
<glyph unicode="&#xe2;" horiz-adv-x="628" d="M503 545Q529 545 546 528T563 484V61Q563 35 546 18T503 0Q477 0 460 17T443 61V110L465 101Q465 88 451 70T413 33T357 3T286 -10Q217 -10 161 25T73 123T40 267Q40 349 72 411T160 509T282 545Q325 545 361 532T423
499T464 459T479 424L443 411V484Q443 510 460 527T503 545ZM301 100Q345 100 378 122T429 182T448 267Q448 315 430 353T378 413T301 435Q258 435 225 413T174 353T155 267Q155 220 173 182T225 122T301 100ZM329 687L252 623Q239 612 231 606T203 599Q190 599
182 606T173 624Q173 632 175 638T185 655L234 717Q257 746 295 746H331Q351 746 362 740T385 717L429 655Q437 645 439 639T441 624Q441 614 433 607T411 599Q392 599 384 605T362 623L278 697L329 687Z" />
<glyph unicode="&#xe3;" horiz-adv-x="628" d="M503 545Q529 545 546 528T563 484V61Q563 35 546 18T503 0Q477 0 460 17T443 61V110L465 101Q465 88 451 70T413 33T357 3T286 -10Q217 -10 161 25T73 123T40 267Q40 349 72 411T160 509T282 545Q325 545 361 532T423
499T464 459T479 424L443 411V484Q443 510 460 527T503 545ZM301 100Q345 100 378 122T429 182T448 267Q448 315 430 353T378 413T301 435Q258 435 225 413T174 353T155 267Q155 220 173 182T225 122T301 100ZM173 590Q151 590 135 608T118 658Q118 690 148 718T241
746Q267 746 288 736T326 714T359 691T388 681Q399 681 405 686T408 702Q401 725 413 738T443 751Q466 751 482 734T498 685Q498 668 487 647T451 611T384 595Q363 595 342 605T299 627T260 650T228 660Q218 660 212 655T208 639Q215 617 203 604T173 590Z" />
<glyph unicode="&#xe4;" horiz-adv-x="628" d="M503 545Q529 545 546 528T563 484V61Q563 35 546 18T503 0Q477 0 460 17T443 61V110L465 101Q465 88 451 70T413 33T357 3T286 -10Q217 -10 161 25T73 123T40 267Q40 349 72 411T160 509T282 545Q325 545 361 532T423
499T464 459T479 424L443 411V484Q443 510 460 527T503 545ZM301 100Q345 100 378 122T429 182T448 267Q448 315 430 353T378 413T301 435Q258 435 225 413T174 353T155 267Q155 220 173 182T225 122T301 100ZM404 600Q373 600 359 611T345 650V668Q345 697 360
707T406 718Q439 718 453 707T468 668V650Q468 620 453 610T404 600ZM205 600Q174 600 160 611T146 650V668Q146 696 161 707T205 718Q240 718 254 708T269 668V650Q269 620 254 610T205 600Z" />
<glyph unicode="&#xe5;" horiz-adv-x="628" d="M503 545Q529 545 546 528T563 484V61Q563 35 546 18T503 0Q477 0 460 17T443 61V110L465 101Q465 88 451 70T413 33T357 3T286 -10Q217 -10 161 25T73 123T40 267Q40 349 72 411T160 509T282 545Q325 545 361 532T423
499T464 459T479 424L443 411V484Q443 510 460 527T503 545ZM301 100Q345 100 378 122T429 182T448 267Q448 315 430 353T378 413T301 435Q258 435 225 413T174 353T155 267Q155 220 173 182T225 122T301 100ZM309 570Q279 570 253 585T211 625T195 679Q195 710
211 735T253 775T309 790Q339 790 365 775T407 735T423 679Q423 650 407 625T365 585T309 570ZM309 640Q328 640 340 651T353 679Q353 700 340 710T309 720Q290 720 278 710T265 679Q265 662 277 651T309 640Z" />
<glyph unicode="&#xe6;" horiz-adv-x="926" d="M272 545Q309 545 347 538T418 512T471 464T491 388V267L376 260V351Q376 389 358 406T315 429T269 435Q234 435 210 426T169 402T136 368Q117 347 91 347Q72 347 56 360T40 395Q40 405 43 415T54 436Q75 462 104
487T175 528T272 545ZM233 -10Q188 -10 145 7T72 60T43 154Q43 206 64 244T133 304T258 326H776L758 308V333Q756 362 738 385T692 421T633 435Q603 435 577 427T532 400T502 349T491 268Q491 214 513 177T571 120T647 100Q684 100 706 106T741 120T766 135Q784
144 800 144Q822 144 836 129T851 94Q851 67 823 45Q797 23 750 7T653 -10Q568 -10 506 25T410 122T376 260Q376 350 413 413T508 511T633 545Q684 545 729 524T810 467T865 382T886 280Q885 256 867 241T825 226H246Q210 226 193 215T169 188T163 156Q163 136
174 123T202 104T237 98Q282 98 312 111T360 144T388 181L441 100Q427 79 397 53T326 9T233 -10Z" />
<glyph unicode="&#xe7;" horiz-adv-x="520" d="M303 545Q360 545 402 533T468 500T492 448Q492 428 480 411T445 393Q429 393 419 397T400 409T381 422Q371 428 351 431T320 435Q269 435 234 413T179 354T160 267Q160 219 179 182T233 122T313 100Q338 100 356
103T386 112Q400 120 411 129T444 138Q470 138 484 122T498 81Q498 56 470 36T397 3T298 -10Q219 -10 161 26T72 126T40 267Q40 349 73 411T166 509T303 545ZM247 -151Q237 -151 222 -146T194 -130T182 -105Q182 -90 194 -75L272 30H343L288 -119Q276 -151 247
-151Z" />
<glyph unicode="&#xe8;" horiz-adv-x="590" d="M317 -10Q232 -10 170 25T74 122T40 260Q40 350 76 413T172 511T297 545Q348 545 393 524T474 467T529 382T550 280Q549 256 531 241T489 226H107L77 326H444L422 306V333Q420 362 402 385T356 421T297 435Q267 435
241 427T196 400T166 349T155 268Q155 214 177 177T235 120T311 100Q348 100 370 106T405 120T430 135Q448 144 464 144Q486 144 500 129T515 94Q515 67 487 45Q461 23 414 7T317 -10ZM296 570Q291 570 285 571T273 576L173 629Q155 639 146 653T136 682Q136 705
154 718T189 731Q203 731 215 725T238 709L324 633Q338 620 338 606Q338 590 327 580T296 570Z" />
<glyph unicode="&#xe9;" horiz-adv-x="590" d="M317 -10Q232 -10 170 25T74 122T40 260Q40 350 76 413T172 511T297 545Q348 545 393 524T474 467T529 382T550 280Q549 256 531 241T489 226H107L77 326H444L422 306V333Q420 362 402 385T356 421T297 435Q267 435
241 427T196 400T166 349T155 268Q155 214 177 177T235 120T311 100Q348 100 370 106T405 120T430 135Q448 144 464 144Q486 144 500 129T515 94Q515 67 487 45Q461 23 414 7T317 -10ZM298 569Q290 569 278 577T266 602Q266 611 272 621L330 723Q339 739 353 751T385
763Q413 763 426 749T438 713Q437 703 433 692T419 670L343 586Q333 575 321 572T298 569Z" />
<glyph unicode="&#xea;" horiz-adv-x="590" d="M317 -10Q232 -10 170 25T74 122T40 260Q40 350 76 413T172 511T297 545Q348 545 393 524T474 467T529 382T550 280Q549 256 531 241T489 226H107L77 326H444L422 306V333Q420 362 402 385T356 421T297 435Q267 435
241 427T196 400T166 349T155 268Q155 214 177 177T235 120T311 100Q348 100 370 106T405 120T430 135Q448 144 464 144Q486 144 500 129T515 94Q515 67 487 45Q461 23 414 7T317 -10ZM315 687L238 623Q225 612 217 606T189 599Q176 599 168 606T159 624Q159 632
161 638T171 655L220 717Q243 746 281 746H317Q337 746 348 740T371 717L415 655Q423 645 425 639T427 624Q427 614 419 607T397 599Q378 599 370 605T348 623L264 697L315 687Z" />
<glyph unicode="&#xeb;" horiz-adv-x="590" d="M317 -10Q232 -10 170 25T74 122T40 260Q40 350 76 413T172 511T297 545Q348 545 393 524T474 467T529 382T550 280Q549 256 531 241T489 226H107L77 326H444L422 306V333Q420 362 402 385T356 421T297 435Q267 435
241 427T196 400T166 349T155 268Q155 214 177 177T235 120T311 100Q348 100 370 106T405 120T430 135Q448 144 464 144Q486 144 500 129T515 94Q515 67 487 45Q461 23 414 7T317 -10ZM390 600Q359 600 345 611T331 650V668Q331 697 346 707T392 718Q425 718 439
707T454 668V650Q454 620 439 610T390 600ZM191 600Q160 600 146 611T132 650V668Q132 696 147 707T191 718Q226 718 240 708T255 668V650Q255 620 240 610T191 600Z" />
<glyph unicode="&#xec;" horiz-adv-x="236" d="M178 61Q178 35 161 18T118 0Q92 0 75 17T58 61V474Q58 500 75 517T118 535Q144 535 161 518T178 474V61ZM377 570Q372 570 366 571T354 576L254 629Q236 639 227 653T217 682Q217 705 235 718T270 731Q284 731 296
725T319 709L405 633Q419 620 419 606Q419 590 408 580T377 570Z" />
<glyph unicode="&#xed;" horiz-adv-x="236" d="M178 61Q178 35 161 18T118 0Q92 0 75 17T58 61V474Q58 500 75 517T118 535Q144 535 161 518T178 474V61ZM123 825Q115 825 103 833T91 858Q91 867 97 877L155 979Q164 995 178 1007T210 1019Q238 1019 251 1005T263
969Q262 959 258 948T244 926L168 842Q158 831 146 828T123 825Z" />
<glyph unicode="&#xee;" horiz-adv-x="236" d="M178 61Q178 35 161 18T118 0Q92 0 75 17T58 61V474Q58 500 75 517T118 535Q144 535 161 518T178 474V61ZM396 687L319 623Q306 612 298 606T270 599Q257 599 249 606T240 624Q240 632 242 638T252 655L301 717Q324
746 362 746H398Q418 746 429 740T452 717L496 655Q504 645 506 639T508 624Q508 614 500 607T478 599Q459 599 451 605T429 623L345 697L396 687Z" />
<glyph unicode="&#xef;" horiz-adv-x="236" d="M178 61Q178 35 161 18T118 0Q92 0 75 17T58 61V474Q58 500 75 517T118 535Q144 535 161 518T178 474V61ZM471 600Q440 600 426 611T412 650V668Q412 697 427 707T473 718Q506 718 520 707T535 668V650Q535 620 520
610T471 600ZM272 600Q241 600 227 611T213 650V668Q213 696 228 707T272 718Q307 718 321 708T336 668V650Q336 620 321 610T272 600Z" />
<glyph unicode="&#xf0;" horiz-adv-x="586" d="M293 -10Q223 -10 166 26T74 124T40 262Q40 319 60 368T115 455T192 513T277 534Q332 534 372 509T436 441T468 342L404 383Q404 441 393 480T360 546T305 590T226 621Q203 627 188 643T173 682Q173 702 185 721T225
740Q240 740 256 736Q314 719 361 687T442 612T500 517T534 404T546 280Q546 188 512 123T421 24T293 -10ZM293 110Q331 110 361 130T408 184T426 262Q426 306 409 340T361 394T293 414Q256 414 226 394T178 340T160 262Q160 219 177 185T225 130T293 110ZM181
528Q159 524 142 530T121 557Q117 578 128 590T161 606L278 630L341 653L453 671Q475 674 492 668T513 642Q517 620 506 608T473 593L401 582L356 563L181 528Z" />
<glyph unicode="&#xf1;" horiz-adv-x="596" d="M351 545Q425 545 463 514T516 432T531 317V61Q531 35 514 18T471 0Q445 0 428 17T411 61V317Q411 350 403 376T372 419T309 435Q269 435 242 419T200 377T185 317V61Q185 35 168 18T125 0Q99 0 82 17T65 61V474Q65
500 82 517T125 535Q151 535 168 518T185 474V431L170 434Q179 451 196 470T236 507T288 534T351 545ZM179 590Q157 590 141 608T124 658Q124 690 154 718T247 746Q273 746 294 736T332 714T365 691T394 681Q405 681 411 686T414 702Q407 725 419 738T449 751Q472
751 488 734T504 685Q504 668 493 647T457 611T390 595Q369 595 348 605T305 627T266 650T234 660Q224 660 218 655T214 639Q221 617 209 604T179 590Z" />
<glyph unicode="&#xf2;" horiz-adv-x="624" d="M584 267Q584 185 548 123T450 25T312 -10Q236 -10 175 25T77 122T40 267Q40 349 76 411T174 509T312 545Q388 545 449 510T547 412T584 267ZM464 267Q464 318 444 355T389 414T312 435Q270 435 236 414T181 356T160
267Q160 217 180 180T235 121T312 100Q354 100 388 121T443 179T464 267ZM315 570Q310 570 304 571T292 576L192 629Q174 639 165 653T155 682Q155 705 173 718T208 731Q222 731 234 725T257 709L343 633Q357 620 357 606Q357 590 346 580T315 570Z" />
<glyph unicode="&#xf3;" horiz-adv-x="624" d="M584 267Q584 185 548 123T450 25T312 -10Q236 -10 175 25T77 122T40 267Q40 349 76 411T174 509T312 545Q388 545 449 510T547 412T584 267ZM464 267Q464 318 444 355T389 414T312 435Q270 435 236 414T181 356T160
267Q160 217 180 180T235 121T312 100Q354 100 388 121T443 179T464 267ZM317 569Q309 569 297 577T285 602Q285 611 291 621L349 723Q358 739 372 751T404 763Q432 763 445 749T457 713Q456 703 452 692T438 670L362 586Q352 575 340 572T317 569Z" />
<glyph unicode="&#xf4;" horiz-adv-x="624" d="M584 267Q584 185 548 123T450 25T312 -10Q236 -10 175 25T77 122T40 267Q40 349 76 411T174 509T312 545Q388 545 449 510T547 412T584 267ZM464 267Q464 318 444 355T389 414T312 435Q270 435 236 414T181 356T160
267Q160 217 180 180T235 121T312 100Q354 100 388 121T443 179T464 267ZM334 687L257 623Q244 612 236 606T208 599Q195 599 187 606T178 624Q178 632 180 638T190 655L239 717Q262 746 300 746H336Q356 746 367 740T390 717L434 655Q442 645 444 639T446 624Q446
614 438 607T416 599Q397 599 389 605T367 623L283 697L334 687Z" />
<glyph unicode="&#xf5;" horiz-adv-x="624" d="M584 267Q584 185 548 123T450 25T312 -10Q236 -10 175 25T77 122T40 267Q40 349 76 411T174 509T312 545Q388 545 449 510T547 412T584 267ZM464 267Q464 318 444 355T389 414T312 435Q270 435 236 414T181 356T160
267Q160 217 180 180T235 121T312 100Q354 100 388 121T443 179T464 267ZM178 590Q156 590 140 608T123 658Q123 690 153 718T246 746Q272 746 293 736T331 714T364 691T393 681Q404 681 410 686T413 702Q406 725 418 738T448 751Q471 751 487 734T503 685Q503
668 492 647T456 611T389 595Q368 595 347 605T304 627T265 650T233 660Q223 660 217 655T213 639Q220 617 208 604T178 590Z" />
<glyph unicode="&#xf6;" horiz-adv-x="624" d="M584 267Q584 185 548 123T450 25T312 -10Q236 -10 175 25T77 122T40 267Q40 349 76 411T174 509T312 545Q388 545 449 510T547 412T584 267ZM464 267Q464 318 444 355T389 414T312 435Q270 435 236 414T181 356T160
267Q160 217 180 180T235 121T312 100Q354 100 388 121T443 179T464 267ZM409 600Q378 600 364 611T350 650V668Q350 697 365 707T411 718Q444 718 458 707T473 668V650Q473 620 458 610T409 600ZM210 600Q179 600 165 611T151 650V668Q151 696 166 707T210 718Q245
718 259 708T274 668V650Q274 620 259 610T210 600Z" />
<glyph unicode="&#xf7;" horiz-adv-x="619" d="M232 511Q232 543 255 566T310 589Q342 589 364 566T387 511Q387 480 365 457T310 434Q278 434 255 457T232 511ZM232 149Q232 180 255 203T310 226Q342 226 364 203T387 149Q387 117 365 94T310 71Q278 71 255 94T232
149ZM109 276Q84 276 67 292T50 332Q50 355 67 370T109 386H510Q536 386 552 371T569 332Q569 309 553 293T510 276H109Z" />
<glyph unicode="&#xf8;" horiz-adv-x="624" d="M108 -20Q86 -20 72 -5T57 29Q57 49 70 63L478 542Q493 560 516 560Q536 560 551 546T567 510Q567 492 554 477L146 -2Q131 -20 108 -20ZM584 267Q584 185 548 123T450 25T312 -10Q236 -10 175 25T77 122T40 267Q40
349 76 411T174 509T312 545Q388 545 449 510T547 412T584 267ZM464 267Q464 318 444 355T389 414T312 435Q270 435 236 414T181 356T160 267Q160 217 180 180T235 121T312 100Q354 100 388 121T443 179T464 267Z" />
<glyph unicode="&#xf9;" horiz-adv-x="587" d="M462 535Q488 535 505 518T522 474V220Q522 114 463 52T293 -10Q182 -10 124 52T65 220V474Q65 500 82 517T125 535Q151 535 168 518T185 474V220Q185 159 212 130T293 100Q348 100 375 129T402 220V474Q402 500
419 517T462 535ZM297 570Q292 570 286 571T274 576L174 629Q156 639 147 653T137 682Q137 705 155 718T190 731Q204 731 216 725T239 709L325 633Q339 620 339 606Q339 590 328 580T297 570Z" />
<glyph unicode="&#xfa;" horiz-adv-x="587" d="M462 535Q488 535 505 518T522 474V220Q522 114 463 52T293 -10Q182 -10 124 52T65 220V474Q65 500 82 517T125 535Q151 535 168 518T185 474V220Q185 159 212 130T293 100Q348 100 375 129T402 220V474Q402 500
419 517T462 535ZM299 569Q291 569 279 577T267 602Q267 611 273 621L331 723Q340 739 354 751T386 763Q414 763 427 749T439 713Q438 703 434 692T420 670L344 586Q334 575 322 572T299 569Z" />
<glyph unicode="&#xfb;" horiz-adv-x="587" d="M462 535Q488 535 505 518T522 474V220Q522 114 463 52T293 -10Q182 -10 124 52T65 220V474Q65 500 82 517T125 535Q151 535 168 518T185 474V220Q185 159 212 130T293 100Q348 100 375 129T402 220V474Q402 500
419 517T462 535ZM316 687L239 623Q226 612 218 606T190 599Q177 599 169 606T160 624Q160 632 162 638T172 655L221 717Q244 746 282 746H318Q338 746 349 740T372 717L416 655Q424 645 426 639T428 624Q428 614 420 607T398 599Q379 599 371 605T349 623L265
697L316 687Z" />
<glyph unicode="&#xfc;" horiz-adv-x="587" d="M462 535Q488 535 505 518T522 474V220Q522 114 463 52T293 -10Q182 -10 124 52T65 220V474Q65 500 82 517T125 535Q151 535 168 518T185 474V220Q185 159 212 130T293 100Q348 100 375 129T402 220V474Q402 500
419 517T462 535ZM391 600Q360 600 346 611T332 650V668Q332 697 347 707T393 718Q426 718 440 707T455 668V650Q455 620 440 610T391 600ZM192 600Q161 600 147 611T133 650V668Q133 696 148 707T192 718Q227 718 241 708T256 668V650Q256 620 241 610T192 600Z"
/>
<glyph unicode="&#xfd;" horiz-adv-x="587" d="M462 535Q488 535 505 518T522 474V49Q522 -43 488 -97T395 -176T265 -200Q233 -200 197 -195T138 -180Q108 -167 97 -148T92 -106Q101 -77 121 -67T163 -64Q179 -69 205 -79T265 -90Q311 -90 341 -78T387 -36T403
45V112L424 88Q407 55 382 34T321 1T241 -10Q188 -10 149 14T87 82T65 182V474Q65 500 82 517T125 535Q151 535 168 518T185 474V218Q185 153 213 127T293 100Q328 100 352 113T389 153T402 218V474Q402 500 419 517T462 535ZM299 569Q291 569 279 577T267 602Q267
611 273 621L331 723Q340 739 354 751T386 763Q414 763 427 749T439 713Q438 703 434 692T420 670L344 586Q334 575 322 572T299 569Z" />
<glyph unicode="&#xfe;" horiz-adv-x="628" d="M342 545Q412 545 467 510T555 412T588 268Q588 186 556 124T469 26T346 -10Q306 -10 271 3T210 36T169 76T154 111L185 124V-139Q185 -165 168 -182T125 -200Q99 -200 82 -183T65 -139V679Q65 705 82 722T125 740Q151
740 168 723T185 679V425L168 434Q168 447 182 465T220 502T275 533T342 545ZM327 435Q283 435 250 413T199 354T180 268Q180 221 198 183T250 122T327 100Q371 100 403 122T454 182T473 268Q473 316 455 353T404 413T327 435Z" />
<glyph unicode="&#xff;" horiz-adv-x="587" d="M462 535Q488 535 505 518T522 474V49Q522 -43 488 -97T395 -176T265 -200Q233 -200 197 -195T138 -180Q108 -167 97 -148T92 -106Q101 -77 121 -67T163 -64Q179 -69 205 -79T265 -90Q311 -90 341 -78T387 -36T403
45V112L424 88Q407 55 382 34T321 1T241 -10Q188 -10 149 14T87 82T65 182V474Q65 500 82 517T125 535Q151 535 168 518T185 474V218Q185 153 213 127T293 100Q328 100 352 113T389 153T402 218V474Q402 500 419 517T462 535ZM391 600Q360 600 346 611T332 650V668Q332
697 347 707T393 718Q426 718 440 707T455 668V650Q455 620 440 610T391 600ZM192 600Q161 600 147 611T133 650V668Q133 696 148 707T192 718Q227 718 241 708T256 668V650Q256 620 241 610T192 600Z" />
<glyph unicode="&#x2013;" horiz-adv-x="516" d="M111 249Q85 249 68 265T50 307Q50 332 67 348T111 364H405Q431 364 448 348T466 307Q466 282 449 266T405 249H111Z" />
<glyph unicode="&#x2014;" horiz-adv-x="886" d="M111 249Q85 249 68 265T50 307Q50 332 67 348T111 364H775Q801 364 818 348T836 307Q836 282 819 266T775 249H111Z" />
<glyph unicode="&#x2018;" horiz-adv-x="275" d="M28 560Q28 594 46 627T94 682T157 705Q168 705 180 696T193 665Q193 643 179 638T154 628Q141 621 134 612T126 588Q126 578 136 569T164 560Q170 560 178 561T192 567Q203 563 210 555T217 530Q217 499 189 477T122
454Q79 454 54 483T28 560Z" />
<glyph unicode="&#x2019;" horiz-adv-x="275" d="M217 599Q217 566 199 533T151 477T88 454Q77 454 65 463T52 494Q52 517 66 521T91 531Q104 538 111 547T119 571Q119 582 109 590T81 599Q75 599 67 598T53 592Q43 597 36 604T28 629Q28 660 56 682T123 705Q166
705 191 676T217 599Z" />
<glyph unicode="&#x201a;" horiz-adv-x="275" d="M217 8Q217 -25 199 -58T151 -114T88 -137Q77 -137 65 -128T52 -97Q52 -74 66 -70T91 -60Q104 -53 111 -44T119 -20Q119 -9 109 -1T81 8Q75 8 67 7T53 1Q43 6 36 13T28 38Q28 69 56 91T123 114Q166 114 191 85T217 8Z" />
<glyph unicode="&#x201c;" horiz-adv-x="455" d="M271 809Q271 843 289 876T337 931T400 954Q411 954 423 945T436 914Q436 892 422 887T397 877Q384 870 377 861T369 837Q369 827 379 818T407 809Q413 809 421 810T435 816Q446 812 453 804T460 779Q460 748 432
726T365 703Q322 703 297 732T271 809ZM236 553Q236 587 254 620T302 675T365 698Q376 698 388 689T401 658Q401 636 387 631T362 621Q349 614 342 605T334 581Q334 571 344 562T372 553Q378 553 386 554T400 560Q411 556 418 548T425 523Q425 492 397 470T330
447Q287 447 262 476T236 553Z" />
<glyph unicode="&#x201d;" horiz-adv-x="455" d="M217 599Q217 566 199 533T151 477T88 454Q77 454 65 463T52 494Q52 517 66 521T91 531Q104 538 111 547T119 571Q119 582 109 590T81 599Q75 599 67 598T53 592Q43 597 36 604T28 629Q28 660 56 682T123 705Q166
705 191 676T217 599ZM426 599Q426 566 408 533T360 477T297 454Q286 454 274 463T261 494Q261 517 275 521T300 531Q313 538 320 547T328 571Q328 582 318 590T290 599Q284 599 276 598T262 592Q252 597 245 604T237 629Q237 660 265 682T332 705Q375 705 400
676T426 599Z" />
<glyph unicode="&#x201e;" horiz-adv-x="434" d="M219 8Q219 -25 201 -58T153 -114T90 -137Q79 -137 67 -128T54 -97Q54 -74 68 -70T93 -60Q106 -53 113 -44T121 -20Q121 -9 111 -1T83 8Q77 8 69 7T55 1Q45 6 38 13T30 38Q30 69 58 91T125 114Q168 114 193 85T219
8ZM429 8Q429 -25 411 -58T363 -114T300 -137Q289 -137 277 -128T264 -97Q264 -74 278 -70T303 -60Q316 -53 323 -44T331 -20Q331 -9 321 -1T293 8Q287 8 279 7T265 1Q255 6 248 13T240 38Q240 69 268 91T335 114Q378 114 403 85T429 8Z" />
<glyph unicode="&#x2022;" horiz-adv-x="349" d="M174 211Q136 211 104 229T52 280T33 351Q33 392 52 424T104 474T174 493Q213 493 245 475T296 424T316 351Q316 312 297 280T245 230T174 211Z" />
<glyph unicode="&#x2039;" horiz-adv-x="276" d="M186 50Q162 50 147 71L28 236Q19 250 19 264Q19 279 28 291L149 455Q163 475 187 475Q204 475 221 462T239 425Q239 408 226 390L128 257V272L229 136Q235 129 237 120T240 103Q240 78 222 64T186 50Z" />
<glyph unicode="&#x203a;" horiz-adv-x="276" d="M73 475Q97 475 112 454L231 289Q240 276 240 261Q240 246 231 234L110 70Q96 50 72 50Q55 50 38 64T20 100Q20 117 33 135L131 268V253L30 389Q24 397 22 405T19 422Q19 448 38 461T73 475Z" />
</font>
</defs>
</svg>
